Minggu, Mei 01, 2011

Super Size Me (2004) 300MB MKV Mediafire

Several legal suits have been brought against MacDonald's Restaurants that they are knowingly selling food that is unhealthy. Some of the court decisions have stated that the plaintiffs would have a claim if they could prove that eating the food every day for every meal is dangerous. As such, documentarian Morgan Spurlock conducts an unscientific experiment using himself as the guinea pig: eat only MacDonald's for thirty days, three meals a day. If he is asked by the clerk if he would like the meal super sized, he has to say yes. And by the end of the thirty days, he will have had to have eaten every single menu item at least once. Before starting the experiment, he is tested by three doctors - a general practitioner, a cardiologist and a gastroenterologist - who pronounce his general health to be outstanding. They will also monitor him over the thirty days to ensure that he is not placing his health into irreparable damage.

Format : Matroska
File size : 325 MiB
Language : English
Duration : 1h 39mn
Overall bit rate : 457 Kbps
Encoded date : UTC 2009-02-27 09:01:24
Writing application : Helix Producer MKV Output Plugin - MatroskaMuxer 1.0
Writing library : libebml v0.6.3 + libmatroska v0.6.3

Video
ID : 2
Format : RealVideo 4
Codec ID : V_REAL/RV40
Codec ID/Info : RealVideo 4.0 aka RealVideo 9
Duration : 1h 39mn
Bit rate : 383 Kbps
Width : 576 pixels
Height : 304 pixels
Display aspect ratio : 1.895
Frame rate : 23.000 fps
Bits/(Pixel*Frame) : 0.095
Stream size : 273 MiB (84%)
Language : English

Audio
ID : 1
Format : Cooker
Codec ID : A_REAL/COOK
Codec ID/Info : Real Audio Cook Codec (codename: Gecko)
Duration : 1h 39mn
Bit rate : 64.1 Kbps
Channel(s) : 2 channels
Sampling rate : 44.1 KHz
Bit depth : 16 bits
Stream size : 45.7 MiB (14%)
Language : English
IMDB Link
Download Link Mediafire
Part 1
Part 2
Part 3
Part 4
Pass: moviesnhacks
Credit to original uploaders
Super Size Me (2004) English Subtitle
Super Size Me (2004) Indonesia Subtitle
Bookmark and Share
Support Me by click on adf.ly. All shorten links is not spam, phising and tested by Me !!!

Perhatian !!! Jika Anda menemukan ada link yang mati, mohon sekiranya Anda laporkan ke saya dengan meninggalkan komentar di bawah.
Untuk Link Download Film yang mati, saya tidak bisa menguploadnya karena keterbatasan koneksi. --- Terima Kasih---

Related Post



1 comments:

Anonim mengatakan... [Reply to comment]

re upload lgi dunk!!

Posting Komentar

Perhatian ! Bagi Anda yang tidak bisa berkomentar klik link di bawah