Minggu, Mei 01, 2011

Ancient Megastructures - Angkor Wat (2010) 350MB AVI Mediafire

Situated deep in the Cambodian jungle, the majestic temple of Angkor Wat – designed to honour the Hindu god Vishnu – took over 30 years to build.








Format : AVI
Format/Info : Audio Video Interleave
File size : 352 MiB
Language : English
Duration : 49mn 58s
Overall bit rate : 986 Kbps
Writing application : VirtualDubMod 1.5.10.2
Writing library : VirtualDubMod build 2540/release

Video
ID : 0
Format : MPEG-4 Visual
Format profile : Advanced Simple@L5
Format settings, BVOP : Yes
Format settings, QPel : No
Format settings, GMC : No warppoints
Format settings, Matrix : Default (H.263)
Muxing mode : Packed bitstream
Codec ID : XVID
Codec ID/Hint : XviD
Duration : 49mn 58s
Bit rate : 849 Kbps
Width : 624 pixels
Height : 352 pixels
Display aspect ratio : 16:9
Frame rate : 25.000 fps
Color space : YUV
Chroma subsampling : 4:2:0
Bit depth : 8 bits
Scan type : Progressive
Compression mode : Lossy
Bits/(Pixel*Frame) : 0.155
Stream size : 304 MiB (86%)
Writing library : XviD 1.2.1 (UTC 2008-12-04)

Audio
ID : 1
Format : MPEG Audio
Format version : Version 1
Format profile : Layer 3
Mode : Dual mono
Codec ID : 55
Codec ID/Hint : MP3
Duration : 49mn 58s
Bit rate mode : Variable
Bit rate : 128 Kbps
Channel(s) : 2 channels
Sampling rate : 48.0 KHz
Compression mode : Lossy
Stream size : 44.1 MiB (13%)
Alignment : Aligned on interleaves
Interleave, duration : 24 ms (0.60 video frame)
Interleave, preload duration : 564 ms
Writing library : LAME3.97
Encoding settings : -m d -V 4 -q 3 -lowpass 17 --abr 128
IMDB Link
Download Link Mediafire
Part 1
Part 2
Part 3
Part 4
Pass Smallripmovies.co.cc
Credit to original uploaders
Ancient Megastructures - Angkor Wat (2010) English Subtitle
Bookmark and Share
Support Me by click on adf.ly. All shorten links is not spam, phising and tested by Me !!!

Perhatian !!! Jika Anda menemukan ada link yang mati, mohon sekiranya Anda laporkan ke saya dengan meninggalkan komentar di bawah.
Untuk Link Download Film yang mati, saya tidak bisa menguploadnya karena keterbatasan koneksi. --- Terima Kasih---

Related Post



0 comments:

Posting Komentar

Perhatian ! Bagi Anda yang tidak bisa berkomentar klik link di bawah