Selasa, Maret 15, 2011

Nazis - The Occult Conspiracy 190-170MB RMVB Mediafire

Nazis-the occult conspiracy is a documentary about how the Hitler and the Nazis made use of occultism to win the war, and to remind the Germans that they were the best humans on the planet, the master-race. There are better documentaries around, but this is a solid documentary. There are many rare pictures from Nazi-Germany to be seen here, and you get to learn more about the religous beliefs of nazi-leaders like: Hitler, Goebbles, Göring, Hess and Himmler. I can`t advice people enough to watch documentaries about Nazi-Germany, because they show how crazy and evil humans can be.

Nazis - The Occult Conspiracy CD 1
Format : RealMedia
File size : 190 MiB
Duration : 47mn 28s
Language : English (Arabic hardsub)
Overall bit rate : 552 Kbps

Video
ID : 0
Format : RealVideo 4
Codec ID : RV40
Codec ID/Info : Based on AVC (H.264), Real Player 9
Duration : 47mn 28s
Bit rate : 487 Kbps
Width : 576 pixels
Height : 432 pixels
Display aspect ratio : 4:3
Frame rate : 23.000 fps
Bits/(Pixel*Frame) : 0.085
Stream size : 166 MiB (87%)

Audio
ID : 1
Format : Cooker
Codec ID : cook
Codec ID/Info : Based on G.722.1, Real Player 6
Duration : 47mn 29s
Bit rate : 64.1 Kbps
Channel(s) : 2 channels
Sampling rate : 44.1 KHz
Bit depth : 16 bits
Stream size : 21.8 MiB (11%)
Nazis - The Occult Conspiracy CD 2
Format : RealMedia
File size : 174 MiB
Duration : 56mn 31s
Language : English (Arabic hardsub)
Overall bit rate : 422 Kbps

Video
ID : 0
Format : RealVideo 4
Codec ID : RV40
Codec ID/Info : Based on AVC (H.264), Real Player 9
Duration : 56mn 31s
Bit rate : 358 Kbps
Width : 512 pixels
Height : 384 pixels
Display aspect ratio : 4:3
Frame rate : 23.000 fps
Bits/(Pixel*Frame) : 0.079
Stream size : 145 MiB (83%)

Audio
ID : 1
Format : Cooker
Codec ID : cook
Codec ID/Info : Based on G.722.1, Real Player 6
Duration : 56mn 31s
Bit rate : 64.1 Kbps
Channel(s) : 2 channels
Sampling rate : 44.1 KHz
Bit depth : 16 bits
Stream size : 25.9 MiB (15%)
IMDB Link
Download Link Mediafire
CD 1
CD 2
Credit to original uploaders
Nazis - The Occult Conspiracy CD 1 English Subtitle
Nazis - The Occult Conspiracy CD 1 Indonesia Subtitle
Nazis - The Occult Conspiracy CD 2 English Subtitle
Nazis - The Occult Conspiracy CD 2 Indonesia Subtitle
Bookmark and Share
Support Me by click on adf.ly. All shorten links is not spam, phising and tested by Me !!!

Perhatian !!! Jika Anda menemukan ada link yang mati, mohon sekiranya Anda laporkan ke saya dengan meninggalkan komentar di bawah.
Untuk Link Download Film yang mati, saya tidak bisa menguploadnya karena keterbatasan koneksi. --- Terima Kasih---

Related Post



0 comments:

Posting Komentar

Perhatian ! Bagi Anda yang tidak bisa berkomentar klik link di bawah