Sabtu, Maret 12, 2011

National Geographic: Untold Stories OF WWII 180MB RMVB Rapidshare

Many of the secrets and esoteric mysteries of World War II will never be revealed. The first and arguably the most fascinating is the story of three intrepid Norwegian resistance fighters who took flight from their occupied homeland to become a "Special Forces Executive" for the Allies. Their story is told in conjunction with a 1949 film portraying their mission, in which they play themselves. Their clandestine duty was to infiltrate a heavy-water factory and single-handedly destroy the inventory of heavy water, which the Allies considered to be the Nazis' first step toward building a functional nuclear device. Other, equally gripping recollections involve the story of the Thunder Gods or, as they are commonly known to us, kamikaze pilots, the brave, impassioned few who volunteered themselves as human bombing machines in a last-ditch effort to destroy the American fleet in the Pacific. These and other stories show us that the outcome of the war was far from inevitable.

Format : RealMedia
File size : 178 MiB
Language : English (Chinese Hardsub)
Overall bit rate : 446 Kbps
Movie name : National.Geographic.100.Years.Vol88

Video
ID : 1
Format : RealVideo 4
Codec ID : RV40
Codec ID/Info : Based on AVC (H.264), Real Player 9
Duration : 54mn 45s
Bit rate : 382 Kbps
Width : 576 pixels
Height : 432 pixels
Display aspect ratio : 4:3
Frame rate : 23.000 fps
Bits/(Pixel*Frame) : 0.067
Stream size : 150 MiB (84%)

Audio
ID : 0
Format : AAC
Format/Info : Advanced Audio Codec
Codec ID : raac
Codec ID/Info : Real Player 9
Duration : 54mn 38s
Bit rate : 64.0 Kbps
Channel(s) : 2 channels
Sampling rate : 32.0 KHz
Bit depth : 16 bits
Compression mode : Lossy
Stream size : 25.0 MiB (14%)
IMDB Link
Download Link Rapidshare
Part 1
Part 2
Credit to original uploaders
National Geographic: Untold Stories OF WWII English Subtitle
Bookmark and Share
Support Me by click on adf.ly. All shorten links is not spam, phising and tested by Me !!!

Perhatian !!! Jika Anda menemukan ada link yang mati, mohon sekiranya Anda laporkan ke saya dengan meninggalkan komentar di bawah.
Untuk Link Download Film yang mati, saya tidak bisa menguploadnya karena keterbatasan koneksi. --- Terima Kasih---

Related Post



1 comments:

krisna badru wijaya mengatakan... [Reply to comment]

Link nya mati semua bang .........!?

Posting Komentar

Perhatian ! Bagi Anda yang tidak bisa berkomentar klik link di bawah