Sabtu, Maret 12, 2011

National Geographic: Tsunami - The Killer Waves 180MB RMVB Rapidshare

The documentary explores the causes of tsunami waves, one of nature's most powerful and destructive forces. Survivors and scientists tell gripping tales of past tsunami disasters in Hawaii, Japan, and the Pacific Northwest.







Format : RealMedia
File size : 175 MiB
Language : English (Chinese Hardsub)
Overall bit rate : 445 Kbps
Movie name : National.Geographic.100.Years.Vol67

Video
ID : 1
Format : RealVideo 4
Codec ID : RV40
Codec ID/Info : Based on AVC (H.264), Real Player 9
Duration : 54mn 10s
Bit rate : 381 Kbps
Width : 576 pixels
Height : 432 pixels
Display aspect ratio : 4:3
Frame rate : 23.000 fps
Bits/(Pixel*Frame) : 0.067
Stream size : 148 MiB (85%)

Audio
ID : 0
Format : AAC
Format/Info : Advanced Audio Codec
Codec ID : raac
Codec ID/Info : Real Player 9
Duration : 54mn 11s
Bit rate : 64.0 Kbps
Channel(s) : 2 channels
Sampling rate : 32.0 KHz
Bit depth : 16 bits
Compression mode : Lossy
Stream size : 24.8 MiB (14%)
IMDB Link
Download Link Rapidshare
Part 1
Part 2
Credit to original uploaders
National Geographic: Tsunami - The Killer Waves English Subtitle
Bookmark and Share
Support Me by click on adf.ly. All shorten links is not spam, phising and tested by Me !!!

Perhatian !!! Jika Anda menemukan ada link yang mati, mohon sekiranya Anda laporkan ke saya dengan meninggalkan komentar di bawah.
Untuk Link Download Film yang mati, saya tidak bisa menguploadnya karena keterbatasan koneksi. --- Terima Kasih---

Related Post



0 comments:

Posting Komentar

Perhatian ! Bagi Anda yang tidak bisa berkomentar klik link di bawah