Minggu, Maret 13, 2011

National Geographic: Mysteries Of Egypt 190MB RMVB Rapidshare

Egypt is and ever was a place of mystery. Many rumors spread around the great Pyramids of Gizeh (the only one of the seven wonders of the world left), their age ranges - in different theories - between 3,000 and even 12,000 years. Here, an old Egyptian is asked by his granddaughter about those mysteries of which we all heard in one way or the other. The action takes us to Howard Carter, who, after years and years of searching, finally found King Tutankhamen's (Tut-ench-Amun) grave in 1922. This was a major event in archaeology, as this grave was never robbed and therefore in the same condition as it was left (est.) 1339 B.C. We also get to see the Nile's wells and other historic landmarks that make Egypt an important part of world history.

Format : RealMedia
File size : 190 MiB
Language : English (Chinese Hardsub)
Overall bit rate : 447 Kbps
Movie name : National.Geographic.100.Years.Vol13

Video
ID : 1
Format : RealVideo 4
Codec ID : RV40
Codec ID/Info : Based on AVC (H.264), Real Player 9
Duration : 58mn 40s
Bit rate : 383 Kbps
Width : 576 pixels
Height : 432 pixels
Display aspect ratio : 4:3
Frame rate : 23.000 fps
Bits/(Pixel*Frame) : 0.067
Stream size : 161 MiB (85%)

Audio
ID : 0
Format : AAC
Format/Info : Advanced Audio Codec
Codec ID : raac
Codec ID/Info : Real Player 9
Duration : 58mn 40s
Bit rate : 64.0 Kbps
Channel(s) : 2 channels
Sampling rate : 32.0 KHz
Bit depth : 16 bits
Compression mode : Lossy
Stream size : 26.9 MiB (14%)
IMDB Link
Download Link Rapidshare
Part 1
Part 2
Credit to original uploaders
National Geographic: Mysteries Of Egypt English Subtitle
Bookmark and Share
Support Me by click on adf.ly. All shorten links is not spam, phising and tested by Me !!!

Perhatian !!! Jika Anda menemukan ada link yang mati, mohon sekiranya Anda laporkan ke saya dengan meninggalkan komentar di bawah.
Untuk Link Download Film yang mati, saya tidak bisa menguploadnya karena keterbatasan koneksi. --- Terima Kasih---

Related Post



0 comments:

Posting Komentar

Perhatian ! Bagi Anda yang tidak bisa berkomentar klik link di bawah