Minggu, Maret 13, 2011

National Geographic: The Great Indian Railway 170MB RMVB Rapidshare

A puffing steam train climbs into the Himalaya, a rolling rumble echoes over the holy waters of the Ganges, an astonishing five million commuters rush daily through the Bombay Victoria Terminus - join National Geographic as we journey on one of the world's largest railways. Since 1853, India's railway has been a unifying force. Not only did it physically link distant regions, it also connected the myriad of castes, languages, and religions that comprise India. It's a rich history, riding the sumptuous Palace on Wheels through Rajasthan or the "toy train" to Darjiing, but sadly, the age of steam is dying. At the Black Beauty contest, the beloved steam engines are admired for the last time. From the driver in the steaming locomotive to the station master in the sleepy village, from the family traveling to a wedding to the commuters in the large cities, this great institution reflects the country itself. Many are the faces, and varied are the stories, on THE GREAT INDIAN RAILWAY.

Format : RealMedia
File size : 172 MiB
Language : English (Chinese Hardsub)
Overall bit rate : 447 Kbps
Movie name : National.Geographic.100.Years.Vol17

Video
ID : 1
Format : RealVideo 4
Codec ID : RV40
Codec ID/Info : Based on AVC (H.264), Real Player 9
Duration : 53mn 4s
Bit rate : 383 Kbps
Width : 576 pixels
Height : 344 pixels
Display aspect ratio : 1.674
Frame rate : 23.000 fps
Bits/(Pixel*Frame) : 0.084
Stream size : 145 MiB (84%)

Audio
ID : 0
Format : AAC
Format/Info : Advanced Audio Codec
Codec ID : raac
Codec ID/Info : Real Player 9
Duration : 53mn 4s
Bit rate : 64.0 Kbps
Channel(s) : 2 channels
Sampling rate : 32.0 KHz
Bit depth : 16 bits
Compression mode : Lossy
Stream size : 24.3 MiB (14%)
Download Link Rapidshare
Part 1
Part 2
Credit to original uploaders
National Geographic: The Great Indian Railway English Subtitle
Bookmark and Share
Support Me by click on adf.ly. All shorten links is not spam, phising and tested by Me !!!

Perhatian !!! Jika Anda menemukan ada link yang mati, mohon sekiranya Anda laporkan ke saya dengan meninggalkan komentar di bawah.
Untuk Link Download Film yang mati, saya tidak bisa menguploadnya karena keterbatasan koneksi. --- Terima Kasih---

Related Post



1 comments:

krisna badru wijaya mengatakan... [Reply to comment]

File Nya dah di delete bang tlg upload lagi ya? thanks anyway ...........

Posting Komentar

Perhatian ! Bagi Anda yang tidak bisa berkomentar klik link di bawah