Kamis, Maret 24, 2011

Naked Science Birth of the Universe 300MB AVI Indowebster

Our universe, the galaxies, solar system, planet Earth -- land, sea, air, life -- where did they come from? Astronomer Edwin Hubble believes our universe once was very tiny. Take a journey through space and time to discover how the universe was born.






Format : DivX
Format/Info : Audio Video Interleave
File size : 341 MiB
Duration : 45mn 49s
Language : English
Overall bit rate : 1 040 Kbps

Video
ID : 0
Format : MPEG-4 Visual
Format settings, BVOP : Yes
Format settings, QPel : No
Format settings, GMC : No warppoints
Format settings, Matrix : Default (H.263)
Muxing mode : Packed bitstream
Codec ID : DX50
Codec ID/Hint : DivX 5
Duration : 45mn 49s
Bit rate : 900 Kbps
Width : 512 pixels
Height : 288 pixels
Display aspect ratio : 16:9
Frame rate : 29.970 fps
Color space : YUV
Chroma subsampling : 4:2:0
Bit depth : 8 bits
Scan type : Progressive
Compression mode : Lossy
Bits/(Pixel*Frame) : 0.204
Stream size : 295 MiB (87%)
Title : Video
Writing library : DivX 1670

Audio
ID : 1
Format : MPEG Audio
Format version : Version 1
Format profile : Layer 3
Mode : Dual mono
Codec ID : 55
Codec ID/Hint : MP3
Duration : 45mn 49s
Bit rate mode : Constant
Bit rate : 128 Kbps
Channel(s) : 2 channels
Sampling rate : 44.1 KHz
Compression mode : Lossy
Stream size : 42.0 MiB (12%)
Alignment : Split accross interleaves
Interleave, duration : 33 ms (1.00 video frame)
Interleave, preload duration : 500 ms
IMDB Link
Download Link Indowebster
Part 1
Credit to original uploaders
Naked Science Birth of the Universe English Subtitle
Bookmark and Share
Support Me by click on adf.ly. All shorten links is not spam, phising and tested by Me !!!

Perhatian !!! Jika Anda menemukan ada link yang mati, mohon sekiranya Anda laporkan ke saya dengan meninggalkan komentar di bawah.
Untuk Link Download Film yang mati, saya tidak bisa menguploadnya karena keterbatasan koneksi. --- Terima Kasih---

Related Post



0 comments:

Posting Komentar

Perhatian ! Bagi Anda yang tidak bisa berkomentar klik link di bawah