Jumat, Maret 04, 2011

Download Mr Bean's Holiday (2007) 75MB RMVB Rapidshare

Mr. Bean enters a church raffle and wins a vacation trip to France as well as a camcorder. After boarding a Eurostar train and arriving in Paris, the French language proves a barrier for Bean, as he struggles to get across the city to catch a train to the south of France from the Gare de Lyon. Taking time to order a meal, he finds the consumption of a seafood platter to be a challenge. Just before catching his train, he asks Emil, a Russian film director on his way to be a judge at the Cannes Film festival to use his camcorder to record his boarding, but accidentally causes Emil being left behind at the station. Bean attempts to cheer up the director's son Stepan as the train continues south but matters are made more hectic by the fact that Emil has reported his son to have been kidnapped and Bean losing his wallet and essential travel documents at a pay phone where he and Stepan attempt to contact Emil...

Format : RealMedia
File size : 75.3 MiB
Duration : 1h 25mn
Overall bit rate : 119 Kbps

Video
ID : 1
Format : RealVideo 4
Codec ID : RV40
Codec ID/Info : Based on AVC (H.264), Real Player 9
Duration : 1h 25mn
Bit rate : 98.0 Kbps
Width : 320 pixels
Height : 232 pixels
Display aspect ratio : 1.379
Frame rate : 15.000 fps
Bits/(Pixel*Frame) : 0.088
Stream size : 60.2 MiB (80%)

Audio
ID : 0
Format : Cooker
Codec ID : cook
Codec ID/Info : Based on G.722.1, Real Player 6
Duration : 1h 25mn
Bit rate : 20.7 Kbps
Channel(s) : 2 channels
Sampling rate : 22.05 KHz
Bit depth : 16 bits
Stream size : 12.7 MiB (17%)
Language : English (Rusian Hardsub)
IMDB Link
Download Link Rapidshare
Part 1
pass tHiuPi
Credit to original uploaders
Mr Bean's Holiday (2007) English Subtitle
Mr Bean's Holiday (2007) Indonesia Subtitle
Bookmark and Share
Support Me by click on adf.ly. All shorten links is not spam, phising and tested by Me !!!

Perhatian !!! Jika Anda menemukan ada link yang mati, mohon sekiranya Anda laporkan ke saya dengan meninggalkan komentar di bawah.
Untuk Link Download Film yang mati, saya tidak bisa menguploadnya karena keterbatasan koneksi. --- Terima Kasih---

Related Post



0 comments:

Posting Komentar

Perhatian ! Bagi Anda yang tidak bisa berkomentar klik link di bawah