Rabu, Maret 02, 2011

Download Jackie Chan : The Forbidden Kingdom (2008) 300MB MKV Mediafire

An American teenager who is obsessed with Hong Kong cinema and kung-fu classics makes an extraordinary discovery in a Chinatown pawnshop: the legendary stick weapon of the Chinese sage and warrior, the Monkey King. With the lost relic in hand, the teenager unexpectedly finds himself traveling back to ancient China to join a crew of warriors from martial arts lore on a dangerous quest to free the imprisoned Monkey King.


Format : Matroska
File size : 338 MiB
Duration : 1h 36mn
Overall bit rate : 490 Kbps
Encoded date : UTC 2009-03-22 01:31:54
Writing application : mkvmerge v2.5.1
Writing library : libebml v0.7.7 + libmatroska v0.8.1

Video
ID : 1
Format : AVC
Format/Info : Advanced Video Codec
Format profile : High@L5.1
Format settings, CABAC : Yes
Format settings, ReFrames : 8 frames
Format settings, GOP : N=1
Codec ID : V_MPEG4/ISO/AVC
Duration : 1h 36mn
Bit rate : 385 Kbps
Nominal bit rate : 404 Kbps
Width : 596 pixels
Height : 328 pixels
Display aspect ratio : 16:9
Frame rate : 25.000 fps
Color space : YUV
Chroma subsampling : 4:2:0
Bit depth : 8 bits
Scan type : Progressive
Bits/(Pixel*Frame) : 0.079
Stream size : 265 MiB (78%)
Writing library : x264 core 57 svn-714

Audio
ID : 2
Format : MPEG Audio
Format version : Version 1
Format profile : Layer 3
Mode : Joint stereo
Mode extension : Intensity Stereo + MS Stereo
Codec ID : A_MPEG/L3
Codec ID/Hint : MP3
Duration : 1h 36mn
Bit rate mode : Constant
Bit rate : 96.0 Kbps
Channel(s) : 2 channels
Sampling rate : 44.1 KHz
Compression mode : Lossy
Stream size : 66.1 MiB (20%)
Language : English (Vietnamese Narrator)
IMDB Link
Download Link Mediafire
Part 1
Part 2
Part 3
Part 4
pass mflinks4u.co.cc
Credit to original uploaders
The Forbidden Kingdom (2008) English Subtitle
Bookmark and Share
Support Me by click on adf.ly. All shorten links is not spam, phising and tested by Me !!!

Perhatian !!! Jika Anda menemukan ada link yang mati, mohon sekiranya Anda laporkan ke saya dengan meninggalkan komentar di bawah.
Untuk Link Download Film yang mati, saya tidak bisa menguploadnya karena keterbatasan koneksi. --- Terima Kasih---

Related Post



4 comments:

Anonim mengatakan... [Reply to comment]

kang indonesia ssubtitle ada gk ? :(

Aku mengatakan... [Reply to comment]

Link nya dh mati ya gan...

Aku mengatakan... [Reply to comment]
Komentar ini telah dihapus oleh pengarang.
Aku mengatakan... [Reply to comment]
Komentar ini telah dihapus oleh pengarang.

Posting Komentar

Perhatian ! Bagi Anda yang tidak bisa berkomentar klik link di bawah