Jumat, Maret 04, 2011

Download Dumb and Dumber (1994) 300MB RMVB Mediafire

Harry and Lloyd are two brainless losers who try to return a suitcase full of money to its pretty owner. After a journey full of accidents they arrive in snowy Aspen, Colorado and try to find her. But will they succeed?







Format : RealMedia
File size : 293 MiB
Duration : 1h 52mn
Overall bit rate : 349 Kbps

Video
ID : 1
Format : RealVideo 4
Codec ID : RV40
Codec ID/Info : Based on AVC (H.264), Real Player 9
Duration : 1h 52mn
Bit rate : 285 Kbps
Width : 560 pixels
Height : 304 pixels
Display aspect ratio : 16:9
Frame rate : 23.000 fps
Bits/(Pixel*Frame) : 0.073
Stream size : 230 MiB (79%)

Audio
ID : 0
Format : Cooker
Codec ID : cook
Codec ID/Info : Based on G.722.1, Real Player 6
Duration : 1h 52mn
Bit rate : 64.1 Kbps
Channel(s) : 2 channels
Sampling rate : 44.1 KHz
Bit depth : 16 bits
Stream size : 51.7 MiB (18%)
Language : English (Arabic Hardsub)
IMDB Link
Download Link Mediafire
Part 1
Part 2
pass www.300mbrips.net
Credit to original uploaders
Dumb and Dumber (1994) English Subtitle
Bookmark and Share
Support Me by click on adf.ly. All shorten links is not spam, phising and tested by Me !!!

Perhatian !!! Jika Anda menemukan ada link yang mati, mohon sekiranya Anda laporkan ke saya dengan meninggalkan komentar di bawah.
Untuk Link Download Film yang mati, saya tidak bisa menguploadnya karena keterbatasan koneksi. --- Terima Kasih---

Related Post



0 comments:

Posting Komentar

Perhatian ! Bagi Anda yang tidak bisa berkomentar klik link di bawah