Senin, Maret 14, 2011

BBC - Birth of Israel 190MB RMVB Mediafire

Documentary examining the events leading up to the Israeli war of Independence in 1949, its continuing impact on Arab/Israeli relations and the implications for the Middle East peace process.


Format : RealMedia
File size : 194 MiB
Duration : 58mn 43s
Language : English (Arabic hardsub)
Overall bit rate : 454 Kbps

Video
ID : 0
Format : RealVideo 4
Codec ID : RV40
Codec ID/Info : Based on AVC (H.264), Real Player 9
Duration : 58mn 43s
Bit rate : 390 Kbps
Width : 672 pixels
Height : 384 pixels
Display aspect ratio : 16:9
Frame rate : 25.000 fps
Bits/(Pixel*Frame) : 0.061
Stream size : 164 MiB (84%)

Audio
ID : 1
Format : Cooker
Codec ID : cook
Codec ID/Info : Based on G.722.1, Real Player 6
Duration : 58mn 43s
Bit rate : 64.1 Kbps
Channel(s) : 2 channels
Sampling rate : 44.1 KHz
Bit depth : 16 bits
Stream size : 26.9 MiB (14%)
Download Link Mediafire
Part 1
Credit to original uploaders
BBC - Birth of Israel English Subtitle
BBC - Birth of Israel Indonesia Subtitle
Bookmark and Share
Support Me by click on adf.ly. All shorten links is not spam, phising and tested by Me !!!

Perhatian !!! Jika Anda menemukan ada link yang mati, mohon sekiranya Anda laporkan ke saya dengan meninggalkan komentar di bawah.
Untuk Link Download Film yang mati, saya tidak bisa menguploadnya karena keterbatasan koneksi. --- Terima Kasih---

Related Post



0 comments:

Posting Komentar

Perhatian ! Bagi Anda yang tidak bisa berkomentar klik link di bawah