Senin, Maret 07, 2011

Apocalypse: The Second World War (2009) Episode 3 Shock 400MB AVI Indowebster

Apocalypse: The Second World War (2009) is a six-part French documentary by Daniel Costelle and Isabelle Clarke about the Second World War. It was first aired from September 8, 2009 to September 22, 2009 on France 2 channel. The documentary is comprised exclusively of actual footage of the war as filmed by war correspondents, soldiers, resistance fighters and private citizens. The series is shown in color, with the black and white footage being fully colorized, save for some original color footage. The only exception to the treatment are most Holocaust scenes, which are presented in the original black and white.

Format : AVI
Format/Info : Audio Video Interleave
File size : 465 MiB
Duration : 46mn 54s
Overall bit rate : 1 386 Kbps
Writing application : VirtualDubMod 1.5.10.2
Writing library : VirtualDubMod build 2540/release

Video
ID : 0
Format : MPEG-4 Visual
Format profile : Advanced Simple@L5
Format settings, BVOP : Yes
Format settings, QPel : No
Format settings, GMC : No warppoints
Format settings, Matrix : Default (H.263)
Muxing mode : Packed bitstream
Codec ID : XVID
Codec ID/Hint : XviD
Duration : 46mn 54s
Bit rate : 1 250 Kbps
Width : 624 pixels
Height : 368 pixels
Display aspect ratio : 1.696
Frame rate : 29.970 fps
Color space : YUV
Chroma subsampling : 4:2:0
Bit depth : 8 bits
Scan type : Progressive
Compression mode : Lossy
Bits/(Pixel*Frame) : 0.182
Stream size : 419 MiB (90%)
Writing library : XviD 1.2.1 (UTC 2008-12-04)

Audio
ID : 1
Format : MPEG Audio
Format version : Version 1
Format profile : Layer 3
Mode : Joint stereo
Mode extension : MS Stereo
Codec ID : 55
Codec ID/Hint : MP3
Duration : 46mn 54s
Bit rate mode : Variable
Bit rate : 128 Kbps
Channel(s) : 2 channels
Sampling rate : 48.0 KHz
Compression mode : Lossy
Stream size : 41.0 MiB (9%)
Alignment : Aligned on interleaves
Interleave, duration : 24 ms (0.72 video frame)
Interleave, preload duration : 550 ms
Writing library : LAME3.90.
Encoding settings : -m j -V 4 -q 2 -lowpass 17.6 --abr 128
IMDB Link
Download Link Indowebster
Part 1
Part 2
Pass if needed: UniteUnderTheSameBanner
Credit to original uploaders
Apocalypse: The Second World War (2009) Episode 3 Shock English Subtitle
Note : Download semua part dan ganti ekstensi rar dengan 001,002 dst  kemudian gabung file pakai FFSJ atau HJSplit, tambahkan dengan ekstensi avi dibelakangnya.
Bookmark and Share
Support Me by click on adf.ly. All shorten links is not spam, phising and tested by Me !!!

Perhatian !!! Jika Anda menemukan ada link yang mati, mohon sekiranya Anda laporkan ke saya dengan meninggalkan komentar di bawah.
Untuk Link Download Film yang mati, saya tidak bisa menguploadnya karena keterbatasan koneksi. --- Terima Kasih---

Related Post



4 comments:

Anonim mengatakan... [Reply to comment]

mas gak ada gammbarnya

Anonim mengatakan... [Reply to comment]

bos, part 2 gak bisa di download, gmana nih????

Anonim mengatakan... [Reply to comment]

iya bner, yg part 2 gk bs di download, katanya "file doesn't exist" gtu..

Anonim mengatakan... [Reply to comment]

PART 2 NYA mati, eh

Posting Komentar

Perhatian ! Bagi Anda yang tidak bisa berkomentar klik link di bawah