Jumat, Maret 25, 2011

Delete File Otomatis Berdasarkan Date Time Menggunakan Auto Delete

Bagi anda yang sering menyimpan file di komputer entah anda download dari internet atau transfer via USB Flashdisk, terkadang hanya memboroskan kapasitas dari harddisk anda sehingga hanya menghabiskan tempat.

Tentu akan repot untuk menghapus file tersebut secara manual atau satu per satu. Kini dengan Auto Delete maka anda bisa menghapus file tersebut dengan otomatis dan anda bisa menentukan file yang dihapus dengan berdasarkan date created, modified ataupun dengan file extension dan nama file tersebut. 

  • Kemudian buka dan klik Add Folder untuk menentukan dimana folder yang akan dimonitor.
  • Beri tanda centang pada bagian Use File and Folder Filters untuk menentukan file yang akan dihapus. Klik pada bagian Help untuk daftar perintahnya.
  • Kemudian klik Add Filter jika anda ingin memfilter hanya ekstensi rar maka ketik *.rar
  • Jika anda ingin menghapus file pada berdasarkan lama file tersebut maka beri tanda centang pada Delete files older than. Bila anda mengetahui file mana saja yang dihapus maka beri tanda centang pada Keep log of deleted files kemudian klik Save and exit untuk melanjutkan.
  • Bila anda ingin menjalankannya klik Yes
  • Anda bisa melihat file mana saja yang dihapus dengan klik View Logs
Secara default software ini berjalan di background bersamaan dengan setiap start up windows. Software ini cocok untuk operator warnet ataupun administrator jaringan yang ingin agar komputer client mereka tetap bersih.
Baca Selanjutnya..

Kamis, Maret 24, 2011

Islam Empire of Faith (2000) 400-300MB MKV Mediafire

Islam: Empire of Faith is a documentary series, made in 2000, that details the history of Islam, from the birth of the Islamic Prophet, Muhammad to the Ottoman Empire. It is narrated by Ben Kingsley and is available as three DVDs or two video volumes in NTSC format. The first episode deals with the life of Muhammad, the second with the early Caliphates, Crusades, and Mongol invasion, and the third with the Ottoman Empire and Safavid dynasty.

Islam Empire of Faith (2000) CD 1
Format : Matroska
File size : 402 MiB
Duration : 1h 29mn
Language : English
Overall bit rate : 630 Kbps

Video
ID : 1
Format : AVC
Format/Info : Advanced Video Codec
Format profile : Main@L3.0
Format settings, CABAC : Yes
Format settings, ReFrames : 2 frames
Codec ID : V_MPEG4/ISO/AVC
Duration : 1h 29mn
Nominal bit rate : 463 Kbps
Width : 640 pixels
Height : 352 pixels
Display aspect ratio : 16:9
Frame rate : 29.970 fps
Color space : YUV
Chroma subsampling : 4:2:0
Bit depth : 8 bits
Scan type : Progressive
Bits/(Pixel*Frame) : 0.069
Writing library : x264 core 79

Audio
ID : 2
Format : AAC
Format/Info : Advanced Audio Codec
Format version : Version 4
Format profile : LC
Codec ID : A_AAC
Duration : 1h 29mn
Channel(s) : 2 channels
Channel positions : Front: L R
Sampling rate : 48.0 KHz
Compression mode : Lossy
Islam Empire of Faith (2000) CD 2
Format : Matroska
File size : 311 MiB
Duration : 1h 10mn
Language : English
Overall bit rate : 616 Kbps

Video
ID : 1
Format : AVC
Format/Info : Advanced Video Codec
Format profile : Main@L3.0
Format settings, CABAC : Yes
Format settings, ReFrames : 2 frames
Codec ID : V_MPEG4/ISO/AVC
Duration : 1h 10mn
Nominal bit rate : 449 Kbps
Width : 640 pixels
Height : 352 pixels
Display aspect ratio : 16:9
Frame rate : 29.970 fps
Color space : YUV
Chroma subsampling : 4:2:0
Bit depth : 8 bits
Scan type : Progressive
Bits/(Pixel*Frame) : 0.067
Writing library : x264 core 79

Audio
ID : 2
Format : AAC
Format/Info : Advanced Audio Codec
Format version : Version 4
Format profile : LC
IMDB Link
Islam Empire of Faith (2000) CD 1
Download Link Mediafire
Part 1
Part 2
Part 3
Part 4
pass allmedia4u
Credit to original uploaders
Islam Empire of Faith (2000) CD 1 English Subtitle

Islam Empire of Faith (2000) CD 2
Download Link Mediafire
Part 1
Part 2
Part 3
Part 4
pass allmedia4u
Credit to original uploaders
Islam Empire of Faith (2000) CD 2 English Subtitle
Baca Selanjutnya..

Naked Science Birth of the Universe 300MB AVI Indowebster

Our universe, the galaxies, solar system, planet Earth -- land, sea, air, life -- where did they come from? Astronomer Edwin Hubble believes our universe once was very tiny. Take a journey through space and time to discover how the universe was born.






Format : DivX
Format/Info : Audio Video Interleave
File size : 341 MiB
Duration : 45mn 49s
Language : English
Overall bit rate : 1 040 Kbps

Video
ID : 0
Format : MPEG-4 Visual
Format settings, BVOP : Yes
Format settings, QPel : No
Format settings, GMC : No warppoints
Format settings, Matrix : Default (H.263)
Muxing mode : Packed bitstream
Codec ID : DX50
Codec ID/Hint : DivX 5
Duration : 45mn 49s
Bit rate : 900 Kbps
Width : 512 pixels
Height : 288 pixels
Display aspect ratio : 16:9
Frame rate : 29.970 fps
Color space : YUV
Chroma subsampling : 4:2:0
Bit depth : 8 bits
Scan type : Progressive
Compression mode : Lossy
Bits/(Pixel*Frame) : 0.204
Stream size : 295 MiB (87%)
Title : Video
Writing library : DivX 1670

Audio
ID : 1
Format : MPEG Audio
Format version : Version 1
Format profile : Layer 3
Mode : Dual mono
Codec ID : 55
Codec ID/Hint : MP3
Duration : 45mn 49s
Bit rate mode : Constant
Bit rate : 128 Kbps
Channel(s) : 2 channels
Sampling rate : 44.1 KHz
Compression mode : Lossy
Stream size : 42.0 MiB (12%)
Alignment : Split accross interleaves
Interleave, duration : 33 ms (1.00 video frame)
Interleave, preload duration : 500 ms
IMDB Link
Download Link Indowebster
Part 1
Credit to original uploaders
Naked Science Birth of the Universe English Subtitle
Baca Selanjutnya..

Selasa, Maret 15, 2011

Nazis - The Occult Conspiracy 190-170MB RMVB Mediafire

Nazis-the occult conspiracy is a documentary about how the Hitler and the Nazis made use of occultism to win the war, and to remind the Germans that they were the best humans on the planet, the master-race. There are better documentaries around, but this is a solid documentary. There are many rare pictures from Nazi-Germany to be seen here, and you get to learn more about the religous beliefs of nazi-leaders like: Hitler, Goebbles, Göring, Hess and Himmler. I can`t advice people enough to watch documentaries about Nazi-Germany, because they show how crazy and evil humans can be.

Nazis - The Occult Conspiracy CD 1
Format : RealMedia
File size : 190 MiB
Duration : 47mn 28s
Language : English (Arabic hardsub)
Overall bit rate : 552 Kbps

Video
ID : 0
Format : RealVideo 4
Codec ID : RV40
Codec ID/Info : Based on AVC (H.264), Real Player 9
Duration : 47mn 28s
Bit rate : 487 Kbps
Width : 576 pixels
Height : 432 pixels
Display aspect ratio : 4:3
Frame rate : 23.000 fps
Bits/(Pixel*Frame) : 0.085
Stream size : 166 MiB (87%)

Audio
ID : 1
Format : Cooker
Codec ID : cook
Codec ID/Info : Based on G.722.1, Real Player 6
Duration : 47mn 29s
Bit rate : 64.1 Kbps
Channel(s) : 2 channels
Sampling rate : 44.1 KHz
Bit depth : 16 bits
Stream size : 21.8 MiB (11%)
Nazis - The Occult Conspiracy CD 2
Format : RealMedia
File size : 174 MiB
Duration : 56mn 31s
Language : English (Arabic hardsub)
Overall bit rate : 422 Kbps

Video
ID : 0
Format : RealVideo 4
Codec ID : RV40
Codec ID/Info : Based on AVC (H.264), Real Player 9
Duration : 56mn 31s
Bit rate : 358 Kbps
Width : 512 pixels
Height : 384 pixels
Display aspect ratio : 4:3
Frame rate : 23.000 fps
Bits/(Pixel*Frame) : 0.079
Stream size : 145 MiB (83%)

Audio
ID : 1
Format : Cooker
Codec ID : cook
Codec ID/Info : Based on G.722.1, Real Player 6
Duration : 56mn 31s
Bit rate : 64.1 Kbps
Channel(s) : 2 channels
Sampling rate : 44.1 KHz
Bit depth : 16 bits
Stream size : 25.9 MiB (15%)
IMDB Link
Download Link Mediafire
CD 1
CD 2
Credit to original uploaders
Nazis - The Occult Conspiracy CD 1 English Subtitle
Nazis - The Occult Conspiracy CD 1 Indonesia Subtitle
Nazis - The Occult Conspiracy CD 2 English Subtitle
Nazis - The Occult Conspiracy CD 2 Indonesia Subtitle
Baca Selanjutnya..

Senin, Maret 14, 2011

BBC - Birth of Israel 190MB RMVB Mediafire

Documentary examining the events leading up to the Israeli war of Independence in 1949, its continuing impact on Arab/Israeli relations and the implications for the Middle East peace process.


Format : RealMedia
File size : 194 MiB
Duration : 58mn 43s
Language : English (Arabic hardsub)
Overall bit rate : 454 Kbps

Video
ID : 0
Format : RealVideo 4
Codec ID : RV40
Codec ID/Info : Based on AVC (H.264), Real Player 9
Duration : 58mn 43s
Bit rate : 390 Kbps
Width : 672 pixels
Height : 384 pixels
Display aspect ratio : 16:9
Frame rate : 25.000 fps
Bits/(Pixel*Frame) : 0.061
Stream size : 164 MiB (84%)

Audio
ID : 1
Format : Cooker
Codec ID : cook
Codec ID/Info : Based on G.722.1, Real Player 6
Duration : 58mn 43s
Bit rate : 64.1 Kbps
Channel(s) : 2 channels
Sampling rate : 44.1 KHz
Bit depth : 16 bits
Stream size : 26.9 MiB (14%)
Download Link Mediafire
Part 1
Credit to original uploaders
BBC - Birth of Israel English Subtitle
BBC - Birth of Israel Indonesia Subtitle
Baca Selanjutnya..

Minggu, Maret 13, 2011

National Geographic: The Great Indian Railway 170MB RMVB Rapidshare

A puffing steam train climbs into the Himalaya, a rolling rumble echoes over the holy waters of the Ganges, an astonishing five million commuters rush daily through the Bombay Victoria Terminus - join National Geographic as we journey on one of the world's largest railways. Since 1853, India's railway has been a unifying force. Not only did it physically link distant regions, it also connected the myriad of castes, languages, and religions that comprise India. It's a rich history, riding the sumptuous Palace on Wheels through Rajasthan or the "toy train" to Darjiing, but sadly, the age of steam is dying. At the Black Beauty contest, the beloved steam engines are admired for the last time. From the driver in the steaming locomotive to the station master in the sleepy village, from the family traveling to a wedding to the commuters in the large cities, this great institution reflects the country itself. Many are the faces, and varied are the stories, on THE GREAT INDIAN RAILWAY.

Format : RealMedia
File size : 172 MiB
Language : English (Chinese Hardsub)
Overall bit rate : 447 Kbps
Movie name : National.Geographic.100.Years.Vol17

Video
ID : 1
Format : RealVideo 4
Codec ID : RV40
Codec ID/Info : Based on AVC (H.264), Real Player 9
Duration : 53mn 4s
Bit rate : 383 Kbps
Width : 576 pixels
Height : 344 pixels
Display aspect ratio : 1.674
Frame rate : 23.000 fps
Bits/(Pixel*Frame) : 0.084
Stream size : 145 MiB (84%)

Audio
ID : 0
Format : AAC
Format/Info : Advanced Audio Codec
Codec ID : raac
Codec ID/Info : Real Player 9
Duration : 53mn 4s
Bit rate : 64.0 Kbps
Channel(s) : 2 channels
Sampling rate : 32.0 KHz
Bit depth : 16 bits
Compression mode : Lossy
Stream size : 24.3 MiB (14%)
Download Link Rapidshare
Part 1
Part 2
Credit to original uploaders
National Geographic: The Great Indian Railway English Subtitle
Baca Selanjutnya..

National Geographic: Mysteries Of Egypt 190MB RMVB Rapidshare

Egypt is and ever was a place of mystery. Many rumors spread around the great Pyramids of Gizeh (the only one of the seven wonders of the world left), their age ranges - in different theories - between 3,000 and even 12,000 years. Here, an old Egyptian is asked by his granddaughter about those mysteries of which we all heard in one way or the other. The action takes us to Howard Carter, who, after years and years of searching, finally found King Tutankhamen's (Tut-ench-Amun) grave in 1922. This was a major event in archaeology, as this grave was never robbed and therefore in the same condition as it was left (est.) 1339 B.C. We also get to see the Nile's wells and other historic landmarks that make Egypt an important part of world history.

Format : RealMedia
File size : 190 MiB
Language : English (Chinese Hardsub)
Overall bit rate : 447 Kbps
Movie name : National.Geographic.100.Years.Vol13

Video
ID : 1
Format : RealVideo 4
Codec ID : RV40
Codec ID/Info : Based on AVC (H.264), Real Player 9
Duration : 58mn 40s
Bit rate : 383 Kbps
Width : 576 pixels
Height : 432 pixels
Display aspect ratio : 4:3
Frame rate : 23.000 fps
Bits/(Pixel*Frame) : 0.067
Stream size : 161 MiB (85%)

Audio
ID : 0
Format : AAC
Format/Info : Advanced Audio Codec
Codec ID : raac
Codec ID/Info : Real Player 9
Duration : 58mn 40s
Bit rate : 64.0 Kbps
Channel(s) : 2 channels
Sampling rate : 32.0 KHz
Bit depth : 16 bits
Compression mode : Lossy
Stream size : 26.9 MiB (14%)
IMDB Link
Download Link Rapidshare
Part 1
Part 2
Credit to original uploaders
National Geographic: Mysteries Of Egypt English Subtitle
Baca Selanjutnya..

Sabtu, Maret 12, 2011

National Geographic: Tsunami - The Killer Waves 180MB RMVB Rapidshare

The documentary explores the causes of tsunami waves, one of nature's most powerful and destructive forces. Survivors and scientists tell gripping tales of past tsunami disasters in Hawaii, Japan, and the Pacific Northwest.







Format : RealMedia
File size : 175 MiB
Language : English (Chinese Hardsub)
Overall bit rate : 445 Kbps
Movie name : National.Geographic.100.Years.Vol67

Video
ID : 1
Format : RealVideo 4
Codec ID : RV40
Codec ID/Info : Based on AVC (H.264), Real Player 9
Duration : 54mn 10s
Bit rate : 381 Kbps
Width : 576 pixels
Height : 432 pixels
Display aspect ratio : 4:3
Frame rate : 23.000 fps
Bits/(Pixel*Frame) : 0.067
Stream size : 148 MiB (85%)

Audio
ID : 0
Format : AAC
Format/Info : Advanced Audio Codec
Codec ID : raac
Codec ID/Info : Real Player 9
Duration : 54mn 11s
Bit rate : 64.0 Kbps
Channel(s) : 2 channels
Sampling rate : 32.0 KHz
Bit depth : 16 bits
Compression mode : Lossy
Stream size : 24.8 MiB (14%)
IMDB Link
Download Link Rapidshare
Part 1
Part 2
Credit to original uploaders
National Geographic: Tsunami - The Killer Waves English Subtitle
Baca Selanjutnya..

National Geographic: Untold Stories OF WWII 180MB RMVB Rapidshare

Many of the secrets and esoteric mysteries of World War II will never be revealed. The first and arguably the most fascinating is the story of three intrepid Norwegian resistance fighters who took flight from their occupied homeland to become a "Special Forces Executive" for the Allies. Their story is told in conjunction with a 1949 film portraying their mission, in which they play themselves. Their clandestine duty was to infiltrate a heavy-water factory and single-handedly destroy the inventory of heavy water, which the Allies considered to be the Nazis' first step toward building a functional nuclear device. Other, equally gripping recollections involve the story of the Thunder Gods or, as they are commonly known to us, kamikaze pilots, the brave, impassioned few who volunteered themselves as human bombing machines in a last-ditch effort to destroy the American fleet in the Pacific. These and other stories show us that the outcome of the war was far from inevitable.

Format : RealMedia
File size : 178 MiB
Language : English (Chinese Hardsub)
Overall bit rate : 446 Kbps
Movie name : National.Geographic.100.Years.Vol88

Video
ID : 1
Format : RealVideo 4
Codec ID : RV40
Codec ID/Info : Based on AVC (H.264), Real Player 9
Duration : 54mn 45s
Bit rate : 382 Kbps
Width : 576 pixels
Height : 432 pixels
Display aspect ratio : 4:3
Frame rate : 23.000 fps
Bits/(Pixel*Frame) : 0.067
Stream size : 150 MiB (84%)

Audio
ID : 0
Format : AAC
Format/Info : Advanced Audio Codec
Codec ID : raac
Codec ID/Info : Real Player 9
Duration : 54mn 38s
Bit rate : 64.0 Kbps
Channel(s) : 2 channels
Sampling rate : 32.0 KHz
Bit depth : 16 bits
Compression mode : Lossy
Stream size : 25.0 MiB (14%)
IMDB Link
Download Link Rapidshare
Part 1
Part 2
Credit to original uploaders
National Geographic: Untold Stories OF WWII English Subtitle
Baca Selanjutnya..

Rabu, Maret 09, 2011

Solusi Internet Download Manager (IDM) yang Berhenti di 99% Menggunakan FFSJ

Belakangan saya sudah jarang sekali menulis sebuah artikel tentang komputer dan internet karena kebanyakan saya menggunakan internet untuk mendownload movie atau film dokumenter.

Tetapi terkadang ketika mendownload sebuah film terjadi sesuatu yang amat menyebalkan yaitu file yang sedang didownload berhenti di 99%. Kejadian ini amat mengesalkan karena sudah menunggu lama tetapi file tersebut tidak jadi karena kurang hanya beberapa bytes saja. Walaupun server yang menyediakan file tersebut mendukung fasilitas resume download tetapi Transfer Rate di IDM masih 0 Bytes/sec, berikut cara mengakali hal tersebut.

  • Ini adalah contoh file download yang berhenti di 99%
  • Kemudian anda ke folder dimana IDM menyimpan bagian yang belum jadi tersebut.
  • Windows XP (C:\Documents and Settings\User\Application Data\IDM\DwnlData\User) Windows 7 (C:\Users\Admin \AppData\Roaming\IDM\DwnlData\Admin)
  • Copy file tersebut ke folder lain, banyaknya file yang ada tergantung dari setting koneksi IDM anda, ada yang menggunakan 1,2,4,8 dan 16.
  • Kemudian ingat ekstensi file yang anda download tersebut
  • Kemudian ganti ekstensi file tersebut menjadi .rmvb.001, .rmvb.002 dan seterusnya. Dimana rmvb merupakan ekstensi asli dan 001 merupakan ekstensi file FFSJ  yang digunakan untuk menggabungkannya.
  • Kemudian buka FFSJ dan di tab Joining, Browse file tersebut dan klik Join untuk menggabungkannya.
  • Dan inilah hasil penggabungan file tersebut.
Ketika saya membukanya dengan Media Player Classic, file tersebut bisa diputar tetapi durasi film tersebut menjadi kacau.
Bagi saya yang penting file tersebut bisa diputar sampai habis walau error ketika menggeser slider film. Untuk mengakali error ketika menggeser slider, tinggal convert ke format lain. Tips ini baru saya coba di file yang berbentuk multimedia dan belum dicoba pada ekstensi file lain.
Baca Selanjutnya..

Apocalypse: The Second World War (2009) Episodes 6 Inferno 400MB AVI Indowebster

Apocalypse: The Second World War (2009) is a six-part French documentary by Daniel Costelle and Isabelle Clarke about the Second World War. It was first aired from September 8, 2009 to September 22, 2009 on France 2 channel. The documentary is comprised exclusively of actual footage of the war as filmed by war correspondents, soldiers, resistance fighters and private citizens. The series is shown in color, with the black and white footage being fully colorized, save for some original color footage. The only exception to the treatment are most Holocaust scenes, which are presented in the original black and white.

Format : AVI
Format/Info : Audio Video Interleave
File size : 465 MiB
Duration : 47mn 0s
Overall bit rate : 1 384 Kbps
Writing application : VirtualDubMod 1.5.10.2 (build 2540/release)
Writing library : VirtualDubMod build 2540/release

Video
ID : 0
Format : MPEG-4 Visual
Format profile : Advanced Simple@L5
Format settings, BVOP : Yes
Format settings, QPel : No
Format settings, GMC : No warppoints
Format settings, Matrix : Default (H.263)
Muxing mode : Packed bitstream
Codec ID : XVID
Codec ID/Hint : XviD
Duration : 47mn 0s
Bit rate : 1 247 Kbps
Width : 624 pixels
Height : 368 pixels
Display aspect ratio : 1.696
Frame rate : 29.970 fps
Color space : YUV
Chroma subsampling : 4:2:0
Bit depth : 8 bits
Scan type : Progressive
Compression mode : Lossy
Bits/(Pixel*Frame) : 0.181
Stream size : 419 MiB (90%)
Writing library : XviD 1.2.1 (UTC 2008-12-04)

Audio
ID : 1
Format : MPEG Audio
Format version : Version 1
Format profile : Layer 3
Mode : Joint stereo
Mode extension : MS Stereo
Codec ID : 55
Codec ID/Hint : MP3
Duration : 47mn 0s
Bit rate mode : Variable
Bit rate : 128 Kbps
Channel(s) : 2 channels
Sampling rate : 48.0 KHz
Compression mode : Lossy
Stream size : 41.3 MiB (9%)
Alignment : Aligned on interleaves
Interleave, duration : 24 ms (0.72 video frame)
Interleave, preload duration : 543 ms
Writing library : LAME3.90.
Encoding settings : -m j -V 4 -q 2 -lowpass 17.6 --abr 128
IMDB Link
Download Link Indowebster
Part 1
Part 2
Part 3
Part 4
Part 5
Pass if needed: UniteUnderTheSameBanner
Credit to original uploaders
Apocalypse: The Second World War (2009) Episodes 6 Inferno English Subtitle
Note : Download semua part dan ganti ekstensi rar dengan 001,002 dst  kemudian gabung file pakai FFSJ atau HJSplit, tambahkan dengan ekstensi avi dibelakangnya.
Baca Selanjutnya..

Apocalypse: The Second World War (2009) Episode 5 Great Landings 400MB AVI Indowebster

Apocalypse: The Second World War (2009) is a six-part French documentary by Daniel Costelle and Isabelle Clarke about the Second World War. It was first aired from September 8, 2009 to September 22, 2009 on France 2 channel. The documentary is comprised exclusively of actual footage of the war as filmed by war correspondents, soldiers, resistance fighters and private citizens. The series is shown in color, with the black and white footage being fully colorized, save for some original color footage. The only exception to the treatment are most Holocaust scenes, which are presented in the original black and white.

Format : AVI
Format/Info : Audio Video Interleave
File size : 465 MiB
Duration : 46mn 53s
Overall bit rate : 1 385 Kbps
Writing application : VirtualDubMod 1.5.10.2 (build 2540/release)
Writing library : VirtualDubMod build 2540/release

Video
ID : 0
Format : MPEG-4 Visual
Format profile : Advanced Simple@L5
Format settings, BVOP : Yes
Format settings, QPel : No
Format settings, GMC : No warppoints
Format settings, Matrix : Default (H.263)
Muxing mode : Packed bitstream
Codec ID : XVID
Codec ID/Hint : XviD
Duration : 46mn 53s
Bit rate : 1 249 Kbps
Width : 624 pixels
Height : 368 pixels
Display aspect ratio : 1.696
Frame rate : 29.970 fps
Color space : YUV
Chroma subsampling : 4:2:0
Bit depth : 8 bits
Scan type : Progressive
Compression mode : Lossy
Bits/(Pixel*Frame) : 0.181
Stream size : 419 MiB (90%)
Writing library : XviD 1.2.1 (UTC 2008-12-04)

Audio
ID : 1
Format : MPEG Audio
Format version : Version 1
Format profile : Layer 3
Mode : Joint stereo
Mode extension : MS Stereo
Codec ID : 55
Codec ID/Hint : MP3
Duration : 46mn 53s
Bit rate mode : Variable
Bit rate : 128 Kbps
Channel(s) : 2 channels
Sampling rate : 48.0 KHz
Compression mode : Lossy
Stream size : 41.1 MiB (9%)
Alignment : Aligned on interleaves
Interleave, duration : 24 ms (0.72 video frame)
Interleave, preload duration : 529 ms
Writing library : LAME3.90.
Encoding settings : -m j -V 4 -q 2 -lowpass 17.6 --abr 128
IMDB Link
Download Link Indowebster
Part 1
Part 2
Part 3
Part 4
Part 5
Pass if needed: UniteUnderTheSameBanner
Credit to original uploaders
Apocalypse: The Second World War (2009) Episode 5 Great Landings English Subtitle
Note : Download semua part dan ganti ekstensi rar dengan 001,002 dst  kemudian gabung file pakai FFSJ atau HJSplit, tambahkan dengan ekstensi avi dibelakangnya.
Baca Selanjutnya..

Senin, Maret 07, 2011

Apocalypse: The Second World War (2009) Episode 4 The World Blaze 400MB AVI Indowebster

Apocalypse: The Second World War (2009) is a six-part French documentary by Daniel Costelle and Isabelle Clarke about the Second World War. It was first aired from September 8, 2009 to September 22, 2009 on France 2 channel. The documentary is comprised exclusively of actual footage of the war as filmed by war correspondents, soldiers, resistance fighters and private citizens. The series is shown in color, with the black and white footage being fully colorized, save for some original color footage. The only exception to the treatment are most Holocaust scenes, which are presented in the original black and white.

Format : AVI
Format/Info : Audio Video Interleave
File size : 465 MiB
Duration : 46mn 56s
Overall bit rate : 1 384 Kbps
Writing application : VirtualDubMod 1.5.10.2
Writing library : VirtualDubMod build 2540/release

Video
ID : 0
Format : MPEG-4 Visual
Format profile : Advanced Simple@L5
Format settings, BVOP : Yes
Format settings, QPel : No
Format settings, GMC : No warppoints
Format settings, Matrix : Default (H.263)
Muxing mode : Packed bitstream
Codec ID : XVID
Codec ID/Hint : XviD
Duration : 46mn 56s
Bit rate : 1 248 Kbps
Width : 624 pixels
Height : 368 pixels
Display aspect ratio : 1.696
Frame rate : 29.970 fps
Color space : YUV
Chroma subsampling : 4:2:0
Bit depth : 8 bits
Scan type : Progressive
Compression mode : Lossy
Bits/(Pixel*Frame) : 0.181
Stream size : 419 MiB (90%)
Writing library : XviD 1.2.1 (UTC 2008-12-04)

Audio
ID : 1
Format : MPEG Audio
Format version : Version 1
Format profile : Layer 3
Mode : Joint stereo
Mode extension : MS Stereo
Codec ID : 55
Codec ID/Hint : MP3
Duration : 46mn 56s
Bit rate mode : Variable
Bit rate : 128 Kbps
Channel(s) : 2 channels
Sampling rate : 48.0 KHz
Compression mode : Lossy
Stream size : 41.0 MiB (9%)
Alignment : Aligned on interleaves
Interleave, duration : 24 ms (0.72 video frame)
Interleave, preload duration : 547 ms
Writing library : LAME3.90.
Encoding settings : -m j -V 4 -q 2 -lowpass 17.6 --abr 128
IMDB Link
Download Link Indowebster
Part 1
Pass if needed: UniteUnderTheSameBanner
Credit to original uploaders
Apocalypse: The Second World War (2009) Episode 4 The World Blaze English Subtitle
Note : Download semua part dan ganti ekstensi rar dengan 001,002 dst  kemudian gabung file pakai FFSJ atau HJSplit, tambahkan dengan ekstensi avi dibelakangnya.
Baca Selanjutnya..

Apocalypse: The Second World War (2009) Episode 3 Shock 400MB AVI Indowebster

Apocalypse: The Second World War (2009) is a six-part French documentary by Daniel Costelle and Isabelle Clarke about the Second World War. It was first aired from September 8, 2009 to September 22, 2009 on France 2 channel. The documentary is comprised exclusively of actual footage of the war as filmed by war correspondents, soldiers, resistance fighters and private citizens. The series is shown in color, with the black and white footage being fully colorized, save for some original color footage. The only exception to the treatment are most Holocaust scenes, which are presented in the original black and white.

Format : AVI
Format/Info : Audio Video Interleave
File size : 465 MiB
Duration : 46mn 54s
Overall bit rate : 1 386 Kbps
Writing application : VirtualDubMod 1.5.10.2
Writing library : VirtualDubMod build 2540/release

Video
ID : 0
Format : MPEG-4 Visual
Format profile : Advanced Simple@L5
Format settings, BVOP : Yes
Format settings, QPel : No
Format settings, GMC : No warppoints
Format settings, Matrix : Default (H.263)
Muxing mode : Packed bitstream
Codec ID : XVID
Codec ID/Hint : XviD
Duration : 46mn 54s
Bit rate : 1 250 Kbps
Width : 624 pixels
Height : 368 pixels
Display aspect ratio : 1.696
Frame rate : 29.970 fps
Color space : YUV
Chroma subsampling : 4:2:0
Bit depth : 8 bits
Scan type : Progressive
Compression mode : Lossy
Bits/(Pixel*Frame) : 0.182
Stream size : 419 MiB (90%)
Writing library : XviD 1.2.1 (UTC 2008-12-04)

Audio
ID : 1
Format : MPEG Audio
Format version : Version 1
Format profile : Layer 3
Mode : Joint stereo
Mode extension : MS Stereo
Codec ID : 55
Codec ID/Hint : MP3
Duration : 46mn 54s
Bit rate mode : Variable
Bit rate : 128 Kbps
Channel(s) : 2 channels
Sampling rate : 48.0 KHz
Compression mode : Lossy
Stream size : 41.0 MiB (9%)
Alignment : Aligned on interleaves
Interleave, duration : 24 ms (0.72 video frame)
Interleave, preload duration : 550 ms
Writing library : LAME3.90.
Encoding settings : -m j -V 4 -q 2 -lowpass 17.6 --abr 128
IMDB Link
Download Link Indowebster
Part 1
Part 2
Pass if needed: UniteUnderTheSameBanner
Credit to original uploaders
Apocalypse: The Second World War (2009) Episode 3 Shock English Subtitle
Note : Download semua part dan ganti ekstensi rar dengan 001,002 dst  kemudian gabung file pakai FFSJ atau HJSplit, tambahkan dengan ekstensi avi dibelakangnya.
Baca Selanjutnya..

Minggu, Maret 06, 2011

Apocalypse: The Second World War (2009) Episode 2 The Crushing Defeat 400MB AVI Indowebster

Apocalypse: The Second World War (2009) is a six-part French documentary by Daniel Costelle and Isabelle Clarke about the Second World War. It was first aired from September 8, 2009 to September 22, 2009 on France 2 channel. The documentary is comprised exclusively of actual footage of the war as filmed by war correspondents, soldiers, resistance fighters and private citizens. The series is shown in color, with the black and white footage being fully colorized, save for some original color footage. The only exception to the treatment are most Holocaust scenes, which are presented in the original black and white.

Format : AVI
Format/Info : Audio Video Interleave
File size : 465 MiB
Duration : 46mn 54s
Overall bit rate : 1 385 Kbps
Writing application : VirtualDubMod 1.5.10.2 (build 2540/release)
Writing library : VirtualDubMod build 2540/release

Video
ID : 0
Format : MPEG-4 Visual
Format profile : Advanced Simple@L5
Format settings, BVOP : Yes
Format settings, QPel : No
Format settings, GMC : No warppoints
Format settings, Matrix : Default (H.263)
Muxing mode : Packed bitstream
Codec ID : XVID
Codec ID/Hint : XviD
Duration : 46mn 54s
Bit rate : 1 249 Kbps
Width : 624 pixels
Height : 368 pixels
Display aspect ratio : 1.696
Frame rate : 29.970 fps
Color space : YUV
Chroma subsampling : 4:2:0
Bit depth : 8 bits
Scan type : Progressive
Compression mode : Lossy
Bits/(Pixel*Frame) : 0.182
Stream size : 419 MiB (90%)
Writing library : XviD 1.2.1 (UTC 2008-12-04)

Audio
ID : 1
Format : MPEG Audio
Format version : Version 1
Format profile : Layer 3
Mode : Joint stereo
Mode extension : MS Stereo
Codec ID : 55
Codec ID/Hint : MP3
Duration : 46mn 54s
Bit rate mode : Variable
Bit rate : 128 Kbps
Channel(s) : 2 channels
Sampling rate : 48.0 KHz
Compression mode : Lossy
Stream size : 40.9 MiB (9%)
Alignment : Aligned on interleaves
Interleave, duration : 24 ms (0.72 video frame)
Interleave, preload duration : 538 ms
Writing library : LAME3.90.
Encoding settings : -m j -V 4 -q 2 -lowpass 17.6 --abr 128
IMDB Link
Download Link Indowebster
Part 1
Part 2
Pass if needed: UniteUnderTheSameBanner
Credit to original uploaders
Apocalypse: The Second World War (2009) Episode 2 The Crushing Defeat English Subtitle
Note : Download semua part dan ganti ekstensi rar dengan 001,002 dst  kemudian gabung file pakai FFSJ atau HJSplit, tambahkan dengan ekstensi avi dibelakangnya.
Baca Selanjutnya..

Apocalypse: The Second World War (2009) Episode 1 The Aggresion 400MB AVI Indowebster

Apocalypse: The Second World War (2009) is a six-part French documentary by Daniel Costelle and Isabelle Clarke about the Second World War. It was first aired from September 8, 2009 to September 22, 2009 on France 2 channel. The documentary is comprised exclusively of actual footage of the war as filmed by war correspondents, soldiers, resistance fighters and private citizens. The series is shown in color, with the black and white footage being fully colorized, save for some original color footage. The only exception to the treatment are most Holocaust scenes, which are presented in the original black and white.

Format : AVI
Format/Info : Audio Video Interleave
File size : 465 MiB
Duration : 46mn 54s
Overall bit rate : 1 385 Kbps
Writing application : VirtualDubMod 1.5.10.2 (build 2540/release)
Writing library : VirtualDubMod build 2540/release

Video
ID : 0
Format : MPEG-4 Visual
Format profile : Advanced Simple@L5
Format settings, BVOP : Yes
Format settings, QPel : No
Format settings, GMC : No warppoints
Format settings, Matrix : Default (H.263)
Muxing mode : Packed bitstream
Codec ID : XVID
Codec ID/Hint : XviD
Duration : 46mn 54s
Bit rate : 1 248 Kbps
Width : 624 pixels
Height : 368 pixels
Display aspect ratio : 1.696
Frame rate : 29.970 fps
Color space : YUV
Chroma subsampling : 4:2:0
Bit depth : 8 bits
Scan type : Progressive
Compression mode : Lossy
Bits/(Pixel*Frame) : 0.181
Stream size : 419 MiB (90%)
Writing library : XviD 1.2.1 (UTC 2008-12-04)

Audio
ID : 1
Format : MPEG Audio
Format version : Version 1
Format profile : Layer 3
Mode : Joint stereo
Mode extension : MS Stereo
Codec ID : 55
Codec ID/Hint : MP3
Duration : 46mn 54s
Bit rate mode : Variable
Bit rate : 128 Kbps
Channel(s) : 2 channels
Sampling rate : 48.0 KHz
Compression mode : Lossy
Stream size : 41.2 MiB (9%)
Alignment : Aligned on interleaves
Interleave, duration : 24 ms (0.72 video frame)
Interleave, preload duration : 576 ms
Writing library : LAME3.90.
Encoding settings : -m j -V 4 -q 2 -lowpass 17.6 --abr 128
IMDB Link
Download LinkIndowebster
Part 1
Part 2
Pass if needed: UniteUnderTheSameBanner
Credit to original uploaders
Apocalypse: The Second World War - Episode 1 The Aggresion English Subtitle
Note : Download semua part dan ganti ekstensi rar dengan 001,002 dst  kemudian gabung file pakai FFSJ atau HJSplit, tambahkan dengan ekstensi avi dibelakangnya.
Baca Selanjutnya..

Sabtu, Maret 05, 2011

Download Grown Ups (2010) 400MB MKV Mediafire

In 1978, five 12-year-olds win a CYO basketball championship. Thirty years later, they gather with their families for their coach's funeral and a weekend at a house on a lake where they used to party. By now, each is a grownup with problems and challenges: Marcus is alone and drinks too much. Rob, with three daughters he rarely sees, is always deeply in love until he turns on his next ex-wife. Eric is overweight and out of work. Kurt is a househusband, henpecked by wife and mother-in-law. Lenny is a successful Hollywood agent married to a fashion designer; their kids take privilege for granted. Can the outdoors help these grownups rediscover connections or is this chaos in the making?

Format : Matroska
File size : 393 MiB
Duration : 1h 42mn
Overall bit rate : 537 Kbps
Encoded date : UTC 2010-10-08 04:29:49
Writing application : mkvmerge v4.0.0
Writing library : libebml v1.0.0 + libmatroska v1.0.0

Video
ID : 1
Format : AVC
Format/Info : Advanced Video Codec
Format profile : High@L4.1
Format settings, CABAC : Yes
Format settings, ReFrames : 5 frames
Codec ID : V_MPEG4/ISO/AVC
Duration : 1h 42mn
Nominal bit rate : 478 Kbps
Width : 720 pixels
Height : 384 pixels
Display aspect ratio : 1.875
Frame rate : 23.976 fps
Color space : YUV
Chroma subsampling : 4:2:0
Bit depth : 8 bits
Scan type : Progressive
Bits/(Pixel*Frame) : 0.072
Writing library : x264 core 98 r1649 c54c47d

Audio
ID : 2
Format : AAC
Format/Info : Advanced Audio Codec
Format version : Version 4
Format profile : LC
Format settings, SBR : Yes
Format settings, PS : No
Codec ID : A_AAC
Duration : 1h 42mn
Channel(s) : 2 channels
Channel positions : Front: L R
Sampling rate : 48.0 KHz
Compression mode : Lossy
Language : English
IMDB Link
Download Link Mediafire
Part 1
Part 2
Part 3
pass mediafire4u.com
Credit to original uploaders
Grown Ups (2010) English Subtitle
Grown Ups (2010) Indonesia Subtitle
Baca Selanjutnya..

Download Zoolander (2001) 300MB MKV Mediafire

Derek Zoolander is VH1's three time male model of the year, but when Hansel wins the award instead, Zoolander's world becomes upside down. His friends disappear, his father is disappointed in him, and he feels that he's not good as a model anymore. But when evil fashion guru Mugato hires Zoolander, he thinks his life has turned back round again, that is until he finds out that Mugato has actually brainwashed him to kill the Prime Minister of Malaysia. Can Zoolander and his new friends find out how to prevent the incident before it's too late?
Format : Matroska
File size : 298 MiB
Duration : 1h 29mn
Overall bit rate : 468 Kbps
Movie name : gHosT
Encoded date : UTC 2008-08-07 17:28:45
Writing application : mkvmerge v2.2.0
Writing library : libebml v0.7.7 + libmatroska v0.8.1

Video
ID : 1
Format : AVC
Format/Info : Advanced Video Codec
Format profile : High@L4.1
Format settings, CABAC : Yes
Format settings, ReFrames : 6 frames
Codec ID : V_MPEG4/ISO/AVC
Duration : 1h 29mn
Nominal bit rate : 417 Kbps
Width : 640 pixels
Height : 272 pixels
Display aspect ratio : 2.35:1
Frame rate : 23.976 fps
Color space : YUV
Chroma subsampling : 4:2:0
Bit depth : 8 bits
Scan type : Progressive
Bits/(Pixel*Frame) : 0.100
Title : Zoolander
Writing library : x264 core 59 r805M decfd7b

Audio
ID : 2
Format : AAC
Format/Info : Advanced Audio Codec
Format version : Version 4
Format profile : LC
Format settings, SBR : Yes
Format settings, PS : No
Codec ID : A_AAC
Duration : 1h 29mn
Channel(s) : 2 channels
Channel positions : Front: L R
Sampling rate : 48.0 KHz
Compression mode : Lossy
Language : English
IMDB Link
Download Link Mediafire
Part 1
Part 2
Part 3
pass sharingcentre.info
Credit to original uploaders
Zoolander (2001) English Subtitle
Baca Selanjutnya..

Jumat, Maret 04, 2011

Download Mr Bean's Holiday (2007) 75MB RMVB Rapidshare

Mr. Bean enters a church raffle and wins a vacation trip to France as well as a camcorder. After boarding a Eurostar train and arriving in Paris, the French language proves a barrier for Bean, as he struggles to get across the city to catch a train to the south of France from the Gare de Lyon. Taking time to order a meal, he finds the consumption of a seafood platter to be a challenge. Just before catching his train, he asks Emil, a Russian film director on his way to be a judge at the Cannes Film festival to use his camcorder to record his boarding, but accidentally causes Emil being left behind at the station. Bean attempts to cheer up the director's son Stepan as the train continues south but matters are made more hectic by the fact that Emil has reported his son to have been kidnapped and Bean losing his wallet and essential travel documents at a pay phone where he and Stepan attempt to contact Emil...

Format : RealMedia
File size : 75.3 MiB
Duration : 1h 25mn
Overall bit rate : 119 Kbps

Video
ID : 1
Format : RealVideo 4
Codec ID : RV40
Codec ID/Info : Based on AVC (H.264), Real Player 9
Duration : 1h 25mn
Bit rate : 98.0 Kbps
Width : 320 pixels
Height : 232 pixels
Display aspect ratio : 1.379
Frame rate : 15.000 fps
Bits/(Pixel*Frame) : 0.088
Stream size : 60.2 MiB (80%)

Audio
ID : 0
Format : Cooker
Codec ID : cook
Codec ID/Info : Based on G.722.1, Real Player 6
Duration : 1h 25mn
Bit rate : 20.7 Kbps
Channel(s) : 2 channels
Sampling rate : 22.05 KHz
Bit depth : 16 bits
Stream size : 12.7 MiB (17%)
Language : English (Rusian Hardsub)
IMDB Link
Download Link Rapidshare
Part 1
pass tHiuPi
Credit to original uploaders
Mr Bean's Holiday (2007) English Subtitle
Mr Bean's Holiday (2007) Indonesia Subtitle
Baca Selanjutnya..
 
' type='text/javascript'/>