Senin, Februari 14, 2011

Download Jackie Chan : Twin Dragons (1992) 400MB MKV Mediafire

On holidays in Hong Kong, Mrs Ma gives birth to identical twins. A criminal in the same hospital attempts to escape, taking one of the twins hostage. The child is lost during the confusion, and Mr and Mrs Ma return to New York with one child. Years later, John Ma is a famous conductor and pianist, unaware that his twin brother "Boomer" is a mechanic/race car driver/bodyguard in Hong Kong. When John travels to Hong Kong to give a concert, the twins get caught up in each other's business, about which they are anything but experts.

Format : Matroska
File size : 405 MiB
Duration : 1h 44mn
Overall bit rate : 543 Kbps
Encoded date : UTC 2009-03-08 15:20:20
Writing application : mkvmerge v2.4.2
Writing library : libebml v0.7.7 + libmatroska v0.8.1

Video
ID : 1
Format : AVC
Format/Info : Advanced Video Codec
Format profile : High@L5.1
Format settings, CABAC : Yes
Format settings, ReFrames : 13 frames
Codec ID : V_MPEG4/ISO/AVC
Duration : 1h 44mn
Bit rate : 468 Kbps
Nominal bit rate : 496 Kbps
Width : 640 pixels
Height : 272 pixels
Display aspect ratio : 2.35:1
Frame rate : 23.000 fps
Original frame rate : 23.976 fps
Color space : YUV
Chroma subsampling : 4:2:0
Bit depth : 8 bits
Scan type : Progressive
Bits/(Pixel*Frame) : 0.117
Stream size : 349 MiB (86%)
Writing library : x264 core 56 svn-680

Audio
ID : 2
Format : MPEG Audio
Format version : Version 2
Format profile : Layer 3
Mode : Joint stereo
Mode extension : Intensity Stereo + MS Stereo
Codec ID : A_MPEG/L3
Codec ID/Hint : MP3
Duration : 1h 44mn
Bit rate mode : Constant
Bit rate : 64.0 Kbps
Channel(s) : 2 channels
Sampling rate : 24.0 KHz
Compression mode : Lossy
Stream size : 47.7 MiB (12%)
Language : Vietnamese
IMDB Link
Download Link Mediafire
Part 1
Part 2
Part 3
Part 4
Part 5
pass mflinks4u.co.cc
Credit to original uploaders
Twin Dragons (1992) English Subtitle
Bookmark and Share
Support Me by click on adf.ly. All shorten links is not spam, phising and tested by Me !!!

Perhatian !!! Jika Anda menemukan ada link yang mati, mohon sekiranya Anda laporkan ke saya dengan meninggalkan komentar di bawah.
Untuk Link Download Film yang mati, saya tidak bisa menguploadnya karena keterbatasan koneksi. --- Terima Kasih---

Related Post



1 comments:

Anonim mengatakan... [Reply to comment]

link nya mati

Posting Komentar

Perhatian ! Bagi Anda yang tidak bisa berkomentar klik link di bawah