Sabtu, Februari 19, 2011

Download Jackie Chan : Rumble in the Bronx (1995) 300MB MKV Mediafire

Keong comes from Hong Kong to visit New York for his uncle's wedding. His uncle runs a market in the Bronx and Keong offers to help out while Uncle is on his honeymoon. During his stay in the Bronx, Keong befriends a neighbor kid and beats up some neighborhood thugs who cause problems at the market. Meanwhile, one of those petty thugs in the local gang stumbles into a criminal situation way over his head. Blinded by greed, his involvement draws his gang, the kid, Keong, and the whole neighborhood into a deadly crossfire. When the lazy cops fail to successfully resolve matters, Keong takes things into his own hands. Needless to say, much spectacular kung-fu and outrageous action sequences follow.


Format : Matroska
File size : 332 MiB
Duration : 1h 31mn
Overall bit rate : 505 Kbps
Encoded date : UTC 2010-12-10 20:49:38
Writing application : mkvmerge v4.4.0
Writing library : libebml v1.0.0 + libmatroska v1.0.0

Video
ID : 1
Format : AVC
Format/Info : Advanced Video Codec
Format profile : High@L2.1
Format settings, CABAC : Yes
Format settings, ReFrames : 5 frames
Muxing mode : Header stripping
Codec ID : V_MPEG4/ISO/AVC
Duration : 1h 31mn
Bit rate : 440 Kbps
Width : 656 pixels
Height : 272 pixels
Display aspect ratio : 2.40:1
Frame rate : 23.976 fps
Color space : YUV
Chroma subsampling : 4:2:0
Bit depth : 8 bits
Scan type : Progressive
Bits/(Pixel*Frame) : 0.103
Stream size : 289 MiB (87%)

Audio
ID : 2
Format : MPEG Audio
Format version : Version 2
Format profile : Layer 3
Muxing mode : Header stripping
Codec ID : A_MPEG/L3
Codec ID/Hint : MP3
Duration : 1h 29mn
Bit rate mode : Variable
Bit rate : 55.2 Kbps
Channel(s) : 1 channel
Sampling rate : 22.05 KHz
Compression mode : Lossy
Stream size : 35.3 MiB (11%)
Language : English (Vietnamese Narrator)
IMDB Link
Download Link Mediafire
Part 1
Part 2
Part 3
Part 4
pass mflinks4u.co.cc
Credit to original uploaders
Rumble in the Bronx (1995) English Subtitle
Bookmark and Share
Support Me by click on adf.ly. All shorten links is not spam, phising and tested by Me !!!

Perhatian !!! Jika Anda menemukan ada link yang mati, mohon sekiranya Anda laporkan ke saya dengan meninggalkan komentar di bawah.
Untuk Link Download Film yang mati, saya tidak bisa menguploadnya karena keterbatasan koneksi. --- Terima Kasih---

Related Post



1 comments:

Idolamu mengatakan... [Reply to comment]

cool...
makasih ya jackie channya...

Posting Komentar

Perhatian ! Bagi Anda yang tidak bisa berkomentar klik link di bawah