Senin, Februari 07, 2011

Download Jackie Chan : Police Story 3 (1992) 300MB MKV Mediafire

A Hong Kong police officer, Chia Chu is sent undercover to mainland China to break up a drug smuggling ring. After breaking the brother of the drug lord out of prison, he and another agent (a beautiful communist policewoman) are taken to Hong Kong to work for the syndicate. The wife of the crime boss has been arrested in Malaysia for drug trafficking and is soon to be executed. However, she is the only person who knows the account number of a secret Swiss bank account containing millions in drug money. While the two officers are in Malaysia preparing for the jail break, Chia chu accidentally runs into his girlfriend May, who has travelled there from Hong Kong. Soon his cover is blown, the criminals kidnap his girlfriend and he is forced to help them pull off the jail break.

Format : Matroska
File size : 345 MiB
Duration : 1h 35mn
Overall bit rate : 505 Kbps
Encoded date : UTC 2009-03-18 03:35:58
Writing application : mkvmerge v2.5.1
Writing library : libebml v0.7.7 + libmatroska v0.8.1

Video
ID : 1
Format : AVC
Format/Info : Advanced Video Codec
Format profile : High@L5.1
Format settings, CABAC : Yes
Format settings, ReFrames : 8 frames
Codec ID : V_MPEG4/ISO/AVC
Duration : 1h 35mn
Bit rate : 439 Kbps
Width : 656 pixels
Height : 272 pixels
Display aspect ratio : 2.40:1
Frame rate : 23.976 fps
Color space : YUV
Chroma subsampling : 4:2:0
Bit depth : 8 bits
Scan type : Progressive
Bits/(Pixel*Frame) : 0.103
Stream size : 295 MiB (85%)
Writing library : x264 core 57 svn-709C

Audio
ID : 2
Format : MPEG Audio
Format version : Version 2
Format profile : Layer 3
Mode : Joint stereo
Mode extension : Intensity Stereo + MS Stereo
Codec ID : A_MPEG/L3
Codec ID/Hint : MP3
Duration : 1h 35mn
Bit rate mode : Constant
Bit rate : 64.0 Kbps
Channel(s) : 2 channels
Sampling rate : 22.05 KHz
Compression mode : Lossy
Stream size : 43.8 MiB (13%)
Language : VietnameseIMDB Link
Download Link Mediafire
Part 1
Part 2
Part 3
Part 4
pass mflinks4u.co.cc
Credit to original uploaders
Police Story 3 (1992) English Subtitle
Bookmark and Share
Support Me by click on adf.ly. All shorten links is not spam, phising and tested by Me !!!

Perhatian !!! Jika Anda menemukan ada link yang mati, mohon sekiranya Anda laporkan ke saya dengan meninggalkan komentar di bawah.
Untuk Link Download Film yang mati, saya tidak bisa menguploadnya karena keterbatasan koneksi. --- Terima Kasih---

Related Post



0 comments:

Posting Komentar

Perhatian ! Bagi Anda yang tidak bisa berkomentar klik link di bawah