Minggu, Februari 06, 2011

Download Jackie Chan : Police Story 2 (1988) 400MB MKV Mediafire


Despite his success at apprehending criminals, Kevin Chan's unorthodox approach to his work as a police officer sees him demoted to the traffic branch. Despite this, the man he put behind bars is now out of prison, and has vowed to make his life a misery. While this crime boss his harassing Kevin and his girlfriend, the police are contemplating reinstating Kevin to help them fight a group of bombers attempting to extort $10 million from building owners.



Format : Matroska
File size : 431 MiB
Duration : 2h 1mn
Overall bit rate : 496 Kbps
Encoded date : UTC 2010-12-12 22:47:30
Writing application : mkvmerge v4.4.0
Writing library : libebml v1.0.0 + libmatroska v1.0.0

Video
ID : 1
Format : AVC
Format/Info : Advanced Video Codec
Format profile : High@L5.1
Format settings, CABAC : Yes
Format settings, ReFrames : 8 frames
Muxing mode : Header stripping
Codec ID : V_MPEG4/ISO/AVC
Duration : 2h 1mn
Bit rate : 422 Kbps
Width : 656 pixels
Height : 272 pixels
Display aspect ratio : 2.40:1
Frame rate : 23.976 fps
Color space : YUV
Chroma subsampling : 4:2:0
Bit depth : 8 bits
Scan type : Progressive
Bits/(Pixel*Frame) : 0.099
Stream size : 366 MiB (85%)

Audio
ID : 2
Format : MPEG Audio
Format version : Version 1
Format profile : Layer 3
Mode : Joint stereo
Mode extension : MS Stereo
Muxing mode : Header stripping
Codec ID : A_MPEG/L3
Codec ID/Hint : MP3
Duration : 2h 1mn
Bit rate mode : Constant
Bit rate : 64.0 Kbps
Channel(s) : 2 channels
Sampling rate : 44.1 KHz
Compression mode : Lossy
Stream size : 55.5 MiB (13%)
Writing library : LAMEUUULAME3.98
Language : VietnameseIMDB Link
Download Link Mediafire
Part 1
Part 2
Part 3
Part 4
Part 5
pass mflinks4u.co.cc
Credit to original uploaders
Police Story 2 (1988) English Subtitle
Bookmark and Share
Support Me by click on adf.ly. All shorten links is not spam, phising and tested by Me !!!

Perhatian !!! Jika Anda menemukan ada link yang mati, mohon sekiranya Anda laporkan ke saya dengan meninggalkan komentar di bawah.
Untuk Link Download Film yang mati, saya tidak bisa menguploadnya karena keterbatasan koneksi. --- Terima Kasih---

Related Post



1 comments:

Anonim mengatakan... [Reply to comment]

GA BISA DI DONLOT

Posting Komentar

Perhatian ! Bagi Anda yang tidak bisa berkomentar klik link di bawah