Minggu, Februari 06, 2011

Download Jackie Chan : Police Story (1985) 300MB MKV Mediafire

Kevin Chan (aka Jackie) is a Hong-Kong cop, who scores his first big hit by virtually single-handedly capturing and arresting a big drug- lord. Of course, the drug-lord isn't too happy about this, and frames Kevin with the murder of another cop (who happened to be on the take). Kevin has to clear his name, whilst keeping himself from getting killed or arrested, and keeping his girlfriend from leaving him.



Format : Matroska
File size : 388 MiB
Duration : 1h 35mn
Overall bit rate : 566 Kbps
Encoded date : UTC 2009-03-11 04:44:29
Writing application : mkvmerge v2.4.2
Writing library : libebml v0.7.7 + libmatroska v0.8.1

Video
ID : 1
Format : AVC
Format/Info : Advanced Video Codec
Format profile : High@L5.1
Format settings, CABAC : Yes
Format settings, ReFrames : 8 frames
Codec ID : V_MPEG4/ISO/AVC
Duration : 1h 35mn
Bit rate : 479 Kbps
Width : 640 pixels
Height : 272 pixels
Display aspect ratio : 2.35:1
Frame rate : 25.020 fps
Original frame rate : 23.976 fps
Color space : YUV
Chroma subsampling : 4:2:0
Bit depth : 8 bits
Scan type : Progressive
Bits/(Pixel*Frame) : 0.110
Stream size : 337 MiB (87%)
Writing library : x264 core 56 svn-680

Audio
ID : 2
Format : MPEG Audio
Format version : Version 2
Format profile : Layer 3
Codec ID : A_MPEG/L3
Codec ID/Hint : MP3
Duration : 1h 35mn
Bit rate mode : Constant
Bit rate : 64.0 Kbps
Channel(s) : 2 channels
Sampling rate : 24.0 KHz
Compression mode : Lossy
Stream size : 43.9 MiB (11%)
Writing library : LAME3.98r
Language : VietnameseIMDB Link
Download Link
Part 1
Part 2
Part 3
Part 4
pass mflinks4u.co.cc
Credit to original uploaders
Police Story (1985) English Subtitle
Bookmark and Share
Support Me by click on adf.ly. All shorten links is not spam, phising and tested by Me !!!

Perhatian !!! Jika Anda menemukan ada link yang mati, mohon sekiranya Anda laporkan ke saya dengan meninggalkan komentar di bawah.
Untuk Link Download Film yang mati, saya tidak bisa menguploadnya karena keterbatasan koneksi. --- Terima Kasih---

Related Post



0 comments:

Posting Komentar

Perhatian ! Bagi Anda yang tidak bisa berkomentar klik link di bawah