Sabtu, Februari 12, 2011

Download Jackie Chan : The Legend of Drunken Master (1994) 300MB MKV Mediafire

Returning home with his father after a shopping expedition, Wong Fei-Hong is unwittingly caught up in the battle between foreigners who wish to export ancient Chinese artifacts and loyalists who don't want the pieces to leave the country. Fei-Hong has learned a style of fighting called "Drunken Boxing", which makes him a dangerous person to cross. Unfortunately, his father is opposed to his engaging in any kind of fighting, let alone drunken boxing. Consequently, Fei-Hong not only has to fight against the foreigners, but he must overcome his father's antagonism as well.

Format : Matroska
File size : 372 MiB
Duration : 1h 41mn
Overall bit rate : 515 Kbps
Encoded date : UTC 2010-12-14 01:36:45
Writing application : mkvmerge v4.4.0
Writing library : libebml v1.0.0 + libmatroska v1.0.0

Video
ID : 2
Format : AVC
Format/Info : Advanced Video Codec
Format profile : High@L2.1
Format settings, CABAC : Yes
Format settings, ReFrames : 5 frames
Muxing mode : Header stripping
Codec ID : V_MPEG4/ISO/AVC
Duration : 1h 41mn
Bit rate : 440 Kbps
Width : 608 pixels
Height : 256 pixels
Display aspect ratio : 2.35:1
Frame rate : 23.976 fps
Color space : YUV
Chroma subsampling : 4:2:0
Bit depth : 8 bits
Scan type : Progressive
Bits/(Pixel*Frame) : 0.118
Stream size : 318 MiB (86%)

Audio
ID : 1
Format : MPEG Audio
Format version : Version 2
Format profile : Layer 3
Mode : Joint stereo
Mode extension : Intensity Stereo + MS Stereo
Muxing mode : Header stripping
Codec ID : A_MPEG/L3
Codec ID/Hint : MP3
Duration : 1h 41mn
Bit rate mode : Constant
Bit rate : 64.0 Kbps
Channel(s) : 2 channels
Sampling rate : 22.05 KHz
Compression mode : Lossy
Stream size : 46.2 MiB (12%)
Language : Cantonese (Vietnamese Narrator)
IMDB Link
Download Link Mediafire
Part 1
Part 2
Part 3
Part 4
pass mflinks4u.co.cc
Credit to original uploaders
The Legend of Drunken Master (1994) English Subtitle
Bookmark and Share
Support Me by click on adf.ly. All shorten links is not spam, phising and tested by Me !!!

Perhatian !!! Jika Anda menemukan ada link yang mati, mohon sekiranya Anda laporkan ke saya dengan meninggalkan komentar di bawah.
Untuk Link Download Film yang mati, saya tidak bisa menguploadnya karena keterbatasan koneksi. --- Terima Kasih---

Related Post



5 comments:

Anonim mengatakan... [Reply to comment]

makasih ya.tapi ndak bisa disetel

heru mengatakan... [Reply to comment]

@Anonim masa sih gan !!! kalo ane bisa tuh,,,,kan ada screenshotnya !!!

Anonim mengatakan... [Reply to comment]

kok filenya dah ilang di mediafire? tolong dong...

Anonim mengatakan... [Reply to comment]

filenya uda gk da pak

adhe supriatna mengatakan... [Reply to comment]

gan, tolong dong link nya aktifin lagi...
saya pngen bgt ni film nich...

Posting Komentar

Perhatian ! Bagi Anda yang tidak bisa berkomentar klik link di bawah