Sabtu, Februari 12, 2011

Download Jackie Chan : City Hunter (1993) 300MB MKV Mediafire

While searching for the daughter of a Japanese publishing magnate, private investigator Ryu Saeba and his assistant Kaori are caught up in the middle of a cruise liner highjacking. It's up to Ryu to save the day...but can he do it on an empty stomach?






Format : Matroska
File size : 364 MiB
Duration : 1h 35mn
Overall bit rate : 535 Kbps
Encoded date : UTC 2009-03-10 07:00:11
Writing application : mkvmerge v2.4.2
Writing library : libebml v0.7.7 + libmatroska v0.8.1

Video
ID : 1
Format : AVC
Format/Info : Advanced Video Codec
Format profile : High@L3.0
Format settings, CABAC : Yes
Format settings, ReFrames : 5 frames
Codec ID : V_MPEG4/ISO/AVC
Duration : 1h 35mn
Bit rate : 450 Kbps
Width : 640 pixels
Height : 352 pixels
Display aspect ratio : 16:9
Frame rate : 25.000 fps
Original frame rate : 23.976 fps
Color space : YUV
Chroma subsampling : 4:2:0
Bit depth : 8 bits
Scan type : Progressive
Bits/(Pixel*Frame) : 0.080
Stream size : 313 MiB (86%)
Writing library : x264 core 65 r998M 6768543

Audio
ID : 2
Format : MPEG Audio
Format version : Version 2
Format profile : Layer 3
Mode : Joint stereo
Mode extension : Intensity Stereo + MS Stereo
Codec ID : A_MPEG/L3
Codec ID/Hint : MP3
Duration : 1h 35mn
Bit rate mode : Constant
Bit rate : 64.0 Kbps
Channel(s) : 2 channels
Sampling rate : 22.05 KHz
Compression mode : Lossy
Stream size : 43.6 MiB (12%)
Language : Cantonese
IMDB Link
Download Link Mediafire
Part 1
Part 2
Part 3
Part 4
Part 5
pass mflinks4u.co.cc
Credit to original uploaders
City Hunter (1993) English Subtitle
Bookmark and Share
Support Me by click on adf.ly. All shorten links is not spam, phising and tested by Me !!!

Perhatian !!! Jika Anda menemukan ada link yang mati, mohon sekiranya Anda laporkan ke saya dengan meninggalkan komentar di bawah.
Untuk Link Download Film yang mati, saya tidak bisa menguploadnya karena keterbatasan koneksi. --- Terima Kasih---

Related Post



3 comments:

Anonim mengatakan... [Reply to comment]

pls upload this file.. want watch tis movie

Anonim mengatakan... [Reply to comment]

linknya matiii....:(

Anonim mengatakan... [Reply to comment]

linknya mati gannnnnnnnnnnn. . .

Posting Komentar

Perhatian ! Bagi Anda yang tidak bisa berkomentar klik link di bawah