Jumat, Februari 04, 2011

Download Jackie Chan : Armour of God 2 (1991) 300MB MKV Mediafire

Agent Jackie is hired to find WWII Nazi gold hidden in the Sahara desert. He teams up with three bundling women (the 3 stooges?) who are all connected in some way. However a team of mercenries have ideas on the ownership of the gold. A battle / chase ensues as to who gets there first. Lots of choregraphed Kung-Fu and quirky Chan humour




Format : Matroska
File size : 365 MiB
Duration : 1h 40mn
Overall bit rate : 509 Kbps
Encoded date : UTC 2009-03-18 22:34:48
Writing application : mkvmerge v2.4.2
Writing library : libebml v0.7.7 + libmatroska v0.8.1

Video
ID : 1
Format : AVC
Format/Info : Advanced Video Codec
Format profile : High@L5.1
Format settings, CABAC : Yes
Format settings, ReFrames : 8 frames
Codec ID : V_MPEG4/ISO/AVC
Duration : 1h 40mn
Bit rate : 427 Kbps
Width : 656 pixels
Height : 272 pixels
Display aspect ratio : 2.40:1
Frame rate : 25.000 fps
Original frame rate : 23.976 fps
Color space : YUV
Chroma subsampling : 4:2:0
Bit depth : 8 bits
Scan type : Progressive
Bits/(Pixel*Frame) : 0.096
Stream size : 311 MiB (85%)
Writing library : x264 core 57 svn-709C

Audio
ID : 3
Format : MPEG Audio
Format version : Version 2
Format profile : Layer 3
Mode : Joint stereo
Codec ID : A_MPEG/L3
Codec ID/Hint : MP3
Duration : 1h 40mn
Bit rate mode : Constant
Bit rate : 64.0 Kbps
Channel(s) : 2 channels
Sampling rate : 22.05 KHz
Compression mode : Lossy
Stream size : 45.8 MiB (13%)
Language : Vietnamese

IMDB Link
Download Link Mediafire
Part 1
Part 2
Part 3
Part 4
pass mflinks4u.co.cc
FFSJ pass huytran911@yahoo.com
Credit to original uploaders
Armour of God 2 English Subtitle
Bookmark and Share
Support Me by click on adf.ly. All shorten links is not spam, phising and tested by Me !!!

Perhatian !!! Jika Anda menemukan ada link yang mati, mohon sekiranya Anda laporkan ke saya dengan meninggalkan komentar di bawah.
Untuk Link Download Film yang mati, saya tidak bisa menguploadnya karena keterbatasan koneksi. --- Terima Kasih---

Related Post



5 comments:

joe sumantri mengatakan... [Reply to comment]

gan film deep impact ada g ya ....?????

joe sumantri mengatakan... [Reply to comment]

gan film deep impact ada ngga ya gan.....????

Anonim mengatakan... [Reply to comment]

linkx mati gan

Anonim mengatakan... [Reply to comment]

plis gan ane nyari2 film ini
susah banget nyari nya pasti ada kendala jadi idupin lagi ya linkx

heru mengatakan... [Reply to comment]

@Anonim duh inet saya gak kuat upload file segede gitu....
mending cari aja film yang sama....subtitlenya udah saya samain timingnya..

Posting Komentar

Perhatian ! Bagi Anda yang tidak bisa berkomentar klik link di bawah