Sabtu, Februari 05, 2011

Download Jackie Chan : Armour of God (1987) 300MB MKV Mediafire

Jackie Chan and his bumbling sidekick are sent on a quest through Europe to find a mysterious treasure held by a shadowy organization of monks. Jackie Chan plays an ex-singer-turned-fortune-hunter, who's ex-girlfriend is kidnapped by an evil cult. Her finace, an old friend of Jackie's, turns to him for help - as the kidnappers intended.




Format : Matroska
File size : 359 MiB
Duration : 1h 33mn
Overall bit rate : 535 Kbps
Encoded date : UTC 2010-12-15 01:57:11
Writing application : mkvmerge v4.4.0
Writing library : libebml v1.0.0 + libmatroska v1.0.0

Video
ID : 1
Format : AVC
Format/Info : Advanced Video Codec
Format profile : High@L2.1
Format settings, CABAC : Yes
Format settings, ReFrames : 5 frames
Muxing mode : Header stripping
Codec ID : V_MPEG4/ISO/AVC
Duration : 1h 33mn
Bit rate : 460 Kbps
Width : 592 pixels
Height : 320 pixels
Display aspect ratio : 1.850
Frame rate : 25.000 fps
Original frame rate : 23.976 fps
Color space : YUV
Chroma subsampling : 4:2:0
Bit depth : 8 bits
Scan type : Progressive
Bits/(Pixel*Frame) : 0.097
Stream size : 309 MiB (86%)

Audio
ID : 2
Format : MPEG Audio
Format version : Version 2
Format profile : Layer 3
Muxing mode : Header stripping
Codec ID : A_MPEG/L3
Codec ID/Hint : MP3
Duration : 1h 33mn
Bit rate mode : Constant
Bit rate : 64.0 Kbps
Channel(s) : 1 channel
Sampling rate : 22.05 KHz
Compression mode : Lossy
Stream size : 42.9 MiB (12%)
Title : Di tim bao kiem2
Writing library : LAME3.97 (beta)
Language : VietnameseIMDB Link
Download Link Mediafire
Part 1
Part 2
Part 3
Part 4
pass mflinks4u.co.cc
Credit to original uploaders
Armour of God English Subtitle
Bookmark and Share
Support Me by click on adf.ly. All shorten links is not spam, phising and tested by Me !!!

Perhatian !!! Jika Anda menemukan ada link yang mati, mohon sekiranya Anda laporkan ke saya dengan meninggalkan komentar di bawah.
Untuk Link Download Film yang mati, saya tidak bisa menguploadnya karena keterbatasan koneksi. --- Terima Kasih---

Related Post



1 comments:

prologic mengatakan... [Reply to comment]

ade film yang laen nggak boss, ane mau download nich.....

Posting Komentar

Perhatian ! Bagi Anda yang tidak bisa berkomentar klik link di bawah