Minggu, Februari 27, 2011

Download Downfall aka Der Untergang (2004) 500MB MKV Mediafire

In April of 1945, Germany stands at the brink of defeat with the Russian Army closing in from the east and the Allied Expeditionary Force attacking from the west. In Berlin, capital of the Third Reich, Adolf Hitler proclaims that Germany will still achieve victory and orders his Generals and advisers to fight to the last man. "Downfall" explores these final days of the Reich, where senior German leaders (such as Himmler and Goring) began defecting from their beloved Fuhrer, in an effort to save their own lives, while still others (Joseph Goebbels) pledge to die with Hitler. Hitler, himself, degenerates into a paranoid shell of a man, full of optimism one moment and suicidal depression the next. When the end finally does comes, and Hitler lies dead by his own hand, what is left of his military must find a way to end the killing that is the Battle of Berlin, and lay down their arms in surrender.

Format : Matroska
File size : 500 MiB
Duration : 2h 25mn
Overall bit rate : 482 Kbps
Encoded date : UTC 2009-06-29 03:56:03
Writing application : mkvmerge v2.9.5
Writing library : libebml v0.7.7 + libmatroska v0.8.1

Video
ID : 1
Format : AVC
Format/Info : Advanced Video Codec
Format profile : High@L3.0
Format settings, CABAC : Yes
Format settings, ReFrames : 3 frames
Codec ID : V_MPEG4/ISO/AVC
Duration : 2h 25mn
Nominal bit rate : 352 Kbps
Width : 720 pixels
Height : 352 pixels
Display aspect ratio : 2.045
Frame rate : 23.976 fps
Color space : YUV
Chroma subsampling : 4:2:0
Bit depth : 8 bits
Scan type : Progressive
Bits/(Pixel*Frame) : 0.058
Writing library : x264 core 67 r1173M f6d3166

Audio
ID : 2
Format : AAC
Format/Info : Advanced Audio Codec
Format version : Version 4
Format profile : LC
Format settings, SBR : Yes
Format settings, PS : No
Codec ID : A_AAC
Duration : 2h 25mn
Channel(s) : 2 channels
Channel positions : Front: L R
Sampling rate : 48.0 KHz
Compression mode : Lossy
Language : Germany
IMDB Link
Download Link Mediafire
Part 1
Part 2
Part 3
Part 4
Part 5
pass vn-zoom.com
Credit to original uploaders
Downfall aka Der Untergang (2004) English Subtitle
Downfall aka Der Untergang (2004) Indonesia Subtitle
Baca Selanjutnya..

Download Hitler: The Rise of Evil (2003) 400MB MKV Mediafire

The movie describes the life of Adolf Hitler from childhood to manhood, and how he became so powerful. It describes his poor childhood in Austria, it describes the first world war from his point of view, and how he became the strongest man in Germany. The movie show us how turned Hitler from a poor soldier into the leader of the Nazis, and how he survived the attempts to kill him. It describes his relationship with his mistress Eva Braun, and his decisions and enemies inside Germany and inside the Nazi party.

Format : Matroska
File size : 449 MiB
Duration : 1h 29mn
Overall bit rate : 701 Kbps
Encoded date : UTC 2010-08-09 05:31:32
Writing application : mkvmerge v4.0.0
Writing library : libebml v1.0.0 + libmatroska v1.0.0

Video
ID : 1
Format : AVC
Format/Info : Advanced Video Codec
Format profile : High@L3.2
Format settings, CABAC : Yes
Format settings, ReFrames : 8 frames
Codec ID : V_MPEG4/ISO/AVC
Duration : 1h 29mn
Nominal bit rate : 663 Kbps
Width : 1 024 pixels
Height : 576 pixels
Display aspect ratio : 16:9
Frame rate : 25.000 fps
Color space : YUV
Chroma subsampling : 4:2:0
Bit depth : 8 bits
Scan type : Progressive
Bits/(Pixel*Frame) : 0.045
Writing library : x264 core 84 r1400kGIT 20fa784

Audio
ID : 2
Format : AAC
Format/Info : Advanced Audio Codec
Format version : Version 4
Format profile : LC
Format settings, SBR : Yes
Format settings, PS : No
Codec ID : A_AAC
Duration : 1h 29mn
Channel(s) : 2 channels
Channel positions : Front: L R
Sampling rate : 48.0 KHz
Compression mode : Lossy
Language : English
IMDB Link
Download Link Mediafire
Part 1
Part 2
Part 3
pass mediafire4u.com
Credit to original uploaders
Hitler: The Rise of Evil (2003) English Subtitle
Hitler: The Rise of Evil (2003) Indonesia Subtitle
Baca Selanjutnya..

Senin, Februari 21, 2011

Download Troy (2004) 600MB MKV Mediafire

It is the year 1250 B.C. during the late Bronze age. Two emerging nations begin to clash after Paris, the Trojan prince, convinces Helen, Queen of Sparta, to leave her husband Menelaus, and sail with him back to Troy. After Menelaus finds out that his wife was taken by the Trojans, he asks his brother Agamemnom to help him get her back. Agamemnon sees this as an opportunity for power. So they set off with 1,000 ships holding 50,000 Greeks to Troy. With the help of Achilles, the Greeks are able to fight the never before defeated Trojans. But they come to a stop by Hector, Prince of Troy. The whole movie shows their battle struggles, and the foreshadowing of fate in this remake by Wolfgang Petersen of Homer's "The Iliad."


Format : Matroska
File size : 598 MiB
Duration : 3h 4mn
Overall bit rate : 453 Kbps
Encoded date : UTC 2008-07-08 03:37:35
Writing application : mkvmerge v2.2.0
Writing library : libebml v0.7.7 + libmatroska v0.8.1

Video
ID : 1
Format : AVC
Format/Info : Advanced Video Codec
Format profile : High@L5.1
Format settings, CABAC : Yes
Format settings, ReFrames : 8 frames
Codec ID : V_MPEG4/ISO/AVC
Duration : 3h 4mn
Nominal bit rate : 415 Kbps
Width : 640 pixels
Height : 256 pixels
Display aspect ratio : 2.500
Frame rate : 23.976 fps
Color space : YUV
Chroma subsampling : 4:2:0
Bit depth : 8 bits
Scan type : Progressive
Bits/(Pixel*Frame) : 0.106
Writing library : x264 core 60 r895M 16b8f79

Audio
ID : 2
Format : AAC
Format/Info : Advanced Audio Codec
Format version : Version 4
Format profile : LC
Format settings, SBR : Yes
Format settings, PS : Yes
Codec ID : A_AAC
Duration : 3h 4mn
Channel(s) : 2 channels
Channel positions : Front: L R
Sampling rate : 48.0 KHz
Compression mode : Lossy
Language : English
IMDB Link
Download Link Mediafire
Part 1
Part 2
Part 3
Part 4
pass lucky
Credit to original uploaders
Troy (2004) English Subtitle
Troy (2004) Indonesia Subtitle
Baca Selanjutnya..

Download Kingdom of Heaven (2005) 600MB MKV Mediafire

It is the time of the Crusades during the Middle Ages - the world shaping 200-year collision between Europe and the East. A blacksmith named Balian has lost his family and nearly his faith. The religious wars raging in the far-off Holy Land seem remote to him, yet he is pulled into that immense drama. Amid the pageantry and intrigues of medieval Jerusalem he falls in love, grows into a leader, and ultimately uses all his courage and skill to defend the city against staggering odds. Destiny comes seeking Balian in the form of a great knight, Godfrey of Ibelin, a Crusader briefly home to France from fighting in the East. Revealing himself as Balian's father, Godfrey shows him the true meaning of knighthood and takes him on a journey across continents to the fabled Holy City. In Jerusalem at that moment--between the Second and Third Crusades--a fragile peace prevails, through the efforts of its enlightened Christian king.

Format : Matroska
File size : 599 MiB
Duration : 3h 9mn
Overall bit rate : 442 Kbps
Encoded date : UTC 2008-06-25 22:21:40
Writing application : mkvmerge v2.2.0
Writing library : libebml v0.7.7 + libmatroska v0.8.1

Video
ID : 1
Format : AVC
Format/Info : Advanced Video Codec
Format profile : High@L5.1
Format settings, CABAC : Yes
Format settings, ReFrames : 10 frames
Codec ID : V_MPEG4/ISO/AVC
Duration : 3h 9mn
Nominal bit rate : 399 Kbps
Width : 640 pixels
Height : 320 pixels
Display aspect ratio : 2.000
Frame rate : 23.976 fps
Color space : YUV
Chroma subsampling : 4:2:0
Bit depth : 8 bits
Scan type : Progressive
Bits/(Pixel*Frame) : 0.081
Writing library : x264 core 60 r886M 1075536

Audio
ID : 2
Format : AAC
Format/Info : Advanced Audio Codec
Format version : Version 4
Format profile : LC
Format settings, SBR : Yes
Format settings, PS : No
Codec ID : A_AAC
Duration : 3h 9mn
Channel(s) : 2 channels
Channel positions : Front: L R
Sampling rate : 48.0 KHz
Compression mode : Lossy
Language : English
IMDB Link
Download Link Mediafire
Part 1
Part 2
Part 3
Part 4
Part 5
Part 6
pass lucky
Credit to original uploaders
Kingdom of Heaven (2005) English Subtitle
Kingdom of Heaven (2005) Indonesia Subtitle
Baca Selanjutnya..

Minggu, Februari 20, 2011

Download Windtalkers (2002) 400MB MKV Mediafire

WWII. Joe Enders, a decorated Marine who is by-the-book to a fault, is just coming back on duty (by cheating on his medical tests). "Ox" Anderson, much greener, is also getting the same new task: Protect the Navajo codetalkers (Ben Yahzee and Charles Whitehorse, respectively). While Enders is initially frustrated with his assignment, his respect grows as the codetalkers prove their worth in the brutal battle to take Saipan.


File size : 448 MiB
Duration : 2h 14mn
Overall bit rate : 467 Kbps
Encoded date : UTC 2010-12-19 14:23:06
Writing application : mkvmerge v4.4.0
Writing library : libebml v1.0.0 + libmatroska v1.0.0

Video
ID : 1
Format : AVC
Format/Info : Advanced Video Codec
Format profile : High@L3.1
Format settings, CABAC : Yes
Format settings, ReFrames : 8 frames
Muxing mode : Header stripping
Codec ID : V_MPEG4/ISO/AVC
Duration : 2h 14mn
Width : 832 pixels
Height : 352 pixels
Display aspect ratio : 2.35:1
Frame rate : 23.976 fps
Color space : YUV
Chroma subsampling : 4:2:0
Bit depth : 8 bits
Scan type : Progressive

Audio
ID : 2
Format : AAC
Format/Info : Advanced Audio Codec
Format version : Version 4
Format profile : LC
Format settings, SBR : Yes
Format settings, PS : No
Codec ID : A_AAC
Duration : 2h 14mn
Channel(s) : 2 channels
Channel positions : Front: L R
Sampling rate : 48.0 KHz
Compression mode : Lossy
Video delay : 6ms
Language : English
IMDB Link
Download Link Mediafire
Part 1
Part 2
Part 3
Part 4
Part 5
pass lucky
Credit to original uploaders
Windtalkers (2002) English Subtitle
Baca Selanjutnya..

Sabtu, Februari 19, 2011

Download Jackie Chan : Who Am I (1998) 400MB MKV Mediafire

It all started when a bunch of commandos (including Jackie of course) kidnapped three scientist who were studying very powerful meteorite fragments. The mission was a success - until one of their superiors double crossed them. The commandos were then killed in a chopper crash, except Jackie who fell out of the chopper. After that, Jackie was picked up by a a tribe of South African Indians, who then asked him his name. Sadly, Jackie had lost his memory and shouted 'Who Am I?!' which led the Indians to think that it was his name. So he started learning their cultures and customs, while also trying to pick up their language. Later, he started having memories of things that happened before the crash, and he decided to leave the Indians in search for his identity.

Format : Matroska
File size : 402 MiB
Duration : 1h 43mn
Overall bit rate : 542 Kbps
Encoded date : UTC 2010-03-18 15:46:51
Writing application : mkvmerge v2.5.2
Writing library : libebml v0.7.7 + libmatroska v0.8.1

Video
ID : 1
Format : AVC
Format/Info : Advanced Video Codec
Format profile : High@L3.0
Format settings, CABAC : Yes
Format settings, ReFrames : 5 frames
Format settings, GOP : N=1
Codec ID : V_MPEG4/ISO/AVC
Duration : 1h 43mn
Nominal bit rate : 504 Kbps
Width : 720 pixels
Height : 300 pixels
Display aspect ratio : 2.40:1
Frame rate : 25.000 fps
Color space : YUV
Chroma subsampling : 4:2:0
Bit depth : 8 bits
Scan type : Progressive
Bits/(Pixel*Frame) : 0.093
Writing library : x264 core 68 r1183M f21daff

Audio
ID : 2
Format : AAC
Format/Info : Advanced Audio Codec
Format version : Version 4
Format profile : LC
Format settings, SBR : Yes
Format settings, PS : No
Codec ID : A_AAC
Duration : 1h 43mn
Channel(s) : 2 channels
Channel positions : Front: L R
Sampling rate : 48.0 KHz
Compression mode : Lossy
Language : English
IMDB Link
Download Link Mediafire
Part 1
Part 2
Part 3
Part 4
Part 5
pass lucky
Credit to original uploaders
Who Am I (1998) English Subtitle
Baca Selanjutnya..

Download Jackie Chan : Rumble in the Bronx (1995) 300MB MKV Mediafire

Keong comes from Hong Kong to visit New York for his uncle's wedding. His uncle runs a market in the Bronx and Keong offers to help out while Uncle is on his honeymoon. During his stay in the Bronx, Keong befriends a neighbor kid and beats up some neighborhood thugs who cause problems at the market. Meanwhile, one of those petty thugs in the local gang stumbles into a criminal situation way over his head. Blinded by greed, his involvement draws his gang, the kid, Keong, and the whole neighborhood into a deadly crossfire. When the lazy cops fail to successfully resolve matters, Keong takes things into his own hands. Needless to say, much spectacular kung-fu and outrageous action sequences follow.


Format : Matroska
File size : 332 MiB
Duration : 1h 31mn
Overall bit rate : 505 Kbps
Encoded date : UTC 2010-12-10 20:49:38
Writing application : mkvmerge v4.4.0
Writing library : libebml v1.0.0 + libmatroska v1.0.0

Video
ID : 1
Format : AVC
Format/Info : Advanced Video Codec
Format profile : High@L2.1
Format settings, CABAC : Yes
Format settings, ReFrames : 5 frames
Muxing mode : Header stripping
Codec ID : V_MPEG4/ISO/AVC
Duration : 1h 31mn
Bit rate : 440 Kbps
Width : 656 pixels
Height : 272 pixels
Display aspect ratio : 2.40:1
Frame rate : 23.976 fps
Color space : YUV
Chroma subsampling : 4:2:0
Bit depth : 8 bits
Scan type : Progressive
Bits/(Pixel*Frame) : 0.103
Stream size : 289 MiB (87%)

Audio
ID : 2
Format : MPEG Audio
Format version : Version 2
Format profile : Layer 3
Muxing mode : Header stripping
Codec ID : A_MPEG/L3
Codec ID/Hint : MP3
Duration : 1h 29mn
Bit rate mode : Variable
Bit rate : 55.2 Kbps
Channel(s) : 1 channel
Sampling rate : 22.05 KHz
Compression mode : Lossy
Stream size : 35.3 MiB (11%)
Language : English (Vietnamese Narrator)
IMDB Link
Download Link Mediafire
Part 1
Part 2
Part 3
Part 4
pass mflinks4u.co.cc
Credit to original uploaders
Rumble in the Bronx (1995) English Subtitle
Baca Selanjutnya..

Jumat, Februari 18, 2011

Download Bad Boys 2 (2003) 500MB MKV Mediafire

Narcotics cops Mike Lowrey and Marcus Bennett head up a task force investigating the flow of ecstasy into Miami. Their search leads to a dangerous kingpin, whose plan to control the city's drug traffic has touched off an underground war. Meanwhile, things get sexy between Mike and Syd, Marcus's sister.






Format : Matroska
File size : 498 MiB
Duration : 2h 21mn
Overall bit rate : 492 Kbps
Encoded date : UTC 2008-10-21 16:18:18
Writing application : mkvmerge v2.3.0
Writing library : libebml v0.7.7 + libmatroska v0.8.1

Video
ID : 1
Format : AVC
Format/Info : Advanced Video Codec
Format profile : High@L3.0
Format settings, CABAC : Yes
Format settings, ReFrames : 8 frames
Format settings, GOP : N=1
Codec ID : V_MPEG4/ISO/AVC
Duration : 2h 21mn
Nominal bit rate : 453 Kbps
Width : 640 pixels
Height : 352 pixels
Display aspect ratio : 16:9
Frame rate : 23.976 fps
Color space : YUV
Chroma subsampling : 4:2:0
Bit depth : 8 bits
Scan type : Progressive
Bits/(Pixel*Frame) : 0.084
Writing library : x264 core 65 r998M 6768543

Audio
ID : 2
Format : AAC
Format/Info : Advanced Audio Codec
Format version : Version 4
Format profile : LC
Format settings, SBR : Yes
Format settings, PS : No
Codec ID : A_AAC
Duration : 2h 21mn
Channel(s) : 2 channels
Channel positions : Front: L R
Sampling rate : 48.0 KHz
Compression mode : Lossy
Language : English
IMDB Link
Download Link Mediafire
Part 1
Part 2
Part 3
Part 4
Part 5
pass lucky
Credit to original uploaders
Bad Boys 2 (2003) English Subtitle
Bad Boys 2 (2003) Indonesia Subtitle
Baca Selanjutnya..

Download Bad Boys (1995) 400MB MKV Mediafire

Marcus Burnett is a hen-pecked family man. Mike Lowry is a foot-loose and fancy free ladies' man. Both are Miami policemen, and both have 72 hours to reclaim a consignment of drugs stolen from under their station's nose. To complicate matters, in order to get the assistance of the sole witness to a murder, they have to pretend to be each other.




Format : Matroska
File size : 397 MiB
Duration : 1h 55mn
Overall bit rate : 483 Kbps
Encoded date : UTC 2008-10-15 14:18:47
Writing application : mkvmerge v2.3.0
Writing library : libebml v0.7.7 + libmatroska v0.8.1

Video
ID : 1
Format : AVC
Format/Info : Advanced Video Codec
Format profile : High@L3.0
Format settings, CABAC : Yes
Format settings, ReFrames : 8 frames
Codec ID : V_MPEG4/ISO/AVC
Duration : 1h 55mn
Nominal bit rate : 440 Kbps
Width : 640 pixels
Height : 352 pixels
Display aspect ratio : 16:9
Frame rate : 23.976 fps
Color space : YUV
Chroma subsampling : 4:2:0
Bit depth : 8 bits
Scan type : Progressive
Bits/(Pixel*Frame) : 0.081
Writing library : x264 core 65 r998M 6768543

Audio
ID : 2
Format : AAC
Format/Info : Advanced Audio Codec
Format version : Version 4
Format profile : LC
Format settings, SBR : Yes
Format settings, PS : No
Codec ID : A_AAC
Duration : 1h 55mn
Channel(s) : 2 channels
Channel positions : Front: L R
Sampling rate : 48.0 KHz
Compression mode : Lossy
Language : English
IMDB Link
Download Link Mediafire
Part 1
Part 2
Part 3
Part 4
pass lucky
Credit to original uploaders
Bad Boys (1995) English Subtitle
Baca Selanjutnya..

Kamis, Februari 17, 2011

Download Jackie Chan : Rush Hour 3 (2007) 300MB MKV Mediafire

After an attempted assassination on Ambassador Han, Inspector Lee and Detective Carter are back in action as they head to Paris to protect a French woman with knowledge of the Triads' secret leaders. Lee also holds secret meetings with a United Nations authority, but his personal struggles with a Chinese criminal mastermind named Kenji, which reveals that it's Lee's long-lost...brother. But their race will take them across the city, from the depths of the Paris underground to the breathtaking heights of the Eiffel Tower, as they fight to outrun the world's most deadly criminals and save the day.


Format : Matroska
File size : 299 MiB
Duration : 1h 27mn
Overall bit rate : 481 Kbps
Encoded date : UTC 2008-03-31 14:46:51
Writing application : mkvmerge v2.2.0
Writing library : libebml v0.7.7 + libmatroska v0.8.1

Video
ID : 1
Format : AVC
Format/Info : Advanced Video Codec
Format profile : High@L5.1
Format settings, CABAC : Yes
Format settings, ReFrames : 6 frames
Format settings, GOP : N=1
Codec ID : V_MPEG4/ISO/AVC
Duration : 1h 27mn
Nominal bit rate : 425 Kbps
Width : 608 pixels
Height : 256 pixels
Display aspect ratio : 2.35:1
Frame rate : 25.000 fps
Color space : YUV
Chroma subsampling : 4:2:0
Bit depth : 8 bits
Scan type : Progressive
Bits/(Pixel*Frame) : 0.109
Writing library : x264 core 57 svn-714

Audio
ID : 2
Format : AAC
Format/Info : Advanced Audio Codec
Format version : Version 4
Format profile : LC
Format settings, SBR : Yes
Format settings, PS : No
Codec ID : A_AAC
Duration : 1h 27mn
Channel(s) : 2 channels
Channel positions : Front: L R
Sampling rate : 48.0 KHz
Compression mode : Lossy
Language : English
IMDB Link
Download Link Mediafire
Part 1
Part 2
Part 3
pass lucky
Credit to original uploaders
Rush Hour 3 (2007) English Subtitle
Rush Hour 3 (2007) Indonesia Subtitle
Baca Selanjutnya..

Download Jackie Chan : Robin B Hood (2006) 500MB MKV Mediafire

For never-do-well compulsive gambler Fong, there's only one thing more fearsome than debtors at his doorstep - having to coax a crying baby. But what if the baby becomes his golden goose to fend off his debtors? Can he overcome his phobia of diapers, milk bottles, and cloying lullabies?





Format : Matroska
File size : 500 MiB
Duration : 2h 2mn
Overall bit rate : 571 Kbps
Encoded date : UTC 2009-03-07 18:24:44
Writing application : mkvmerge v2.4.2
Writing library : libebml v0.7.7 + libmatroska v0.8.1

Video
ID : 1
Format : AVC
Format/Info : Advanced Video Codec
Format profile : High@L4.1
Format settings, CABAC : Yes
Format settings, ReFrames : 4 frames
Codec ID : V_MPEG4/ISO/AVC
Duration : 2h 2mn
Bit rate : 495 Kbps
Width : 640 pixels
Height : 272 pixels
Display aspect ratio : 2.35:1
Frame rate : 24.000 fps
Original frame rate : 23.976 fps
Color space : YUV
Chroma subsampling : 4:2:0
Bit depth : 8 bits
Scan type : Progressive
Bits/(Pixel*Frame) : 0.119
Stream size : 434 MiB (87%)

Audio
ID : 2
Format : MPEG Audio
Format version : Version 2
Format profile : Layer 3
Mode : Joint stereo
Mode extension : Intensity Stereo
Codec ID : A_MPEG/L3
Codec ID/Hint : MP3
Duration : 2h 2mn
Bit rate mode : Constant
Bit rate : 64.0 Kbps
Channel(s) : 2 channels
Sampling rate : 22.05 KHz
Compression mode : Lossy
Video delay : 12ms
Stream size : 56.1 MiB (11%)
Language : Cantonese (Vietnamese Narrator)
IMDB Link
Download Link Mediafire
Part 1
Part 2
Part 3
Part 4
Part 5
Part 6
pass mflinks4u.co.cc
Credit to original uploaders
Robin B Hood (2006) English Subtitle
Robin B Hood (2006) Indonesia Subtitle
Baca Selanjutnya..

Rabu, Februari 16, 2011

Download Rat Race (2001) 300MB MKV Mediafire

Donald P. Sinclair has placed six separate gold coins in different slot machines in his casino. The lucky six who find these coins discover an opportunity of a lifetime. The chance to own $2 million. Locked up in a locker in New Mexico, these six contestants must now race each other, to be the first to the cash. There are no rules in place and everything that could possibly happen, does. Whilst, behind the scenes, Sinclair's associates are placing their bets.


Format : Matroska
File size : 307 MiB
Duration : 1h 52mn
Overall bit rate : 383 Kbps
Encoded date : UTC 2010-12-25 10:15:10
Writing application : mkvmerge v4.0.0
Writing library : libebml v1.0.0 + libmatroska v1.0.0

Video
ID : 1
Format : AVC
Format/Info : Advanced Video Codec
Format profile : High@L2.1
Format settings, CABAC : Yes
Format settings, ReFrames : 4 frames
Codec ID : V_MPEG4/ISO/AVC
Duration : 1h 52mn
Nominal bit rate : 285 Kbps
Width : 608 pixels
Height : 256 pixels
Display aspect ratio : 2.35:1
Frame rate : 23.976 fps
Color space : YUV
Chroma subsampling : 4:2:0
Bit depth : 8 bits
Scan type : Progressive
Bits/(Pixel*Frame) : 0.076
Writing library : x264 core 98 r1649 20cbe10

Audio
ID : 2
Format : AAC
Format/Info : Advanced Audio Codec
Format version : Version 4
Format profile : LC
Format settings, SBR : No
Codec ID : A_AAC
Duration : 1h 52mn
Channel(s) : 2 channels
Channel positions : Front: L R
Sampling rate : 48.0 KHz
Compression mode : Lossy
Language : English
IMDB Link
Download Link Mediafire
Part 1
Part 2
Part 3
pass doridro.com
Credit to original uploaders
Rat Race (2001) English Subtitle
Baca Selanjutnya..

Download Mousehunt (1997) 300MB MKV Mediafire

A family film about a mouse that lives in an old house where the geriatric owner dies, and Nathan Lane and Lee Evans have plans for, but they have trouble getting rid of the mouse. It's like Home Alone with a mouse.







Format : Matroska
File size : 297 MiB
Duration : 1h 33mn
Overall bit rate : 444 Kbps
Encoded date : UTC 2010-04-07 07:18:18
Writing application : mkvmerge v3.2.0
Writing library : libebml v0.7.9 + libmatroska v0.8.1

Video
ID : 1
Format : AVC
Format/Info : Advanced Video Codec
Format profile : High@L3.0
Format settings, CABAC : Yes
Format settings, ReFrames : 3 frames
Format settings, GOP : N=1
Codec ID : V_MPEG4/ISO/AVC
Duration : 1h 33mn
Nominal bit rate : 377 Kbps
Width : 640 pixels
Height : 336 pixels
Display aspect ratio : 1.905
Frame rate : 25.000 fps
Color space : YUV
Chroma subsampling : 4:2:0
Bit depth : 8 bits
Scan type : Progressive
Bits/(Pixel*Frame) : 0.070
Writing library : x264 core 66 r1101M b69548a

Audio
ID : 2
Format : AAC
Format/Info : Advanced Audio Codec
Format version : Version 4
Format profile : LC
Format settings, SBR : Yes
Format settings, PS : No
Codec ID : A_AAC
Duration : 1h 33mn
Channel(s) : 2 channels
Channel positions : Front: L R
Sampling rate : 48.0 KHz
Compression mode : Lossy
Language : English
IMDB Link
Download Link Mediafire
Part 1
Part 2
pass urgrove.com
Credit to original uploaders
Mousehunt (1997) English Subtitle
Baca Selanjutnya..

Selasa, Februari 15, 2011

Download Stalingrad (1993) 500MB MKV Rapidshare

A depiction of the brutal battle of Stalingrad, the Third Reich's 'high water mark', as seen through the eyes of German officer Hans von Witzland and his battalion.








Format : Matroska
File size : 497 MiB
Duration : 2h 12mn
Overall bit rate : 525 Kbps
Encoded date : UTC 2009-11-20 12:27:52
Writing application : mkvmerge v2.9.7
Writing library : libebml v0.7.7 + libmatroska v0.8.1

Video
ID : 1
Format : AVC
Format/Info : Advanced Video Codec
Format profile : High@L3.0
Format settings, CABAC : Yes
Format settings, ReFrames : 3 frames
Format settings, GOP : N=1
Codec ID : V_MPEG4/ISO/AVC
Duration : 2h 12mn
Nominal bit rate : 488 Kbps
Width : 640 pixels
Height : 352 pixels
Display aspect ratio : 16:9
Frame rate : 25.000 fps
Color space : YUV
Chroma subsampling : 4:2:0
Bit depth : 8 bits
Scan type : Progressive
Bits/(Pixel*Frame) : 0.087
Writing library : x264 core 68 r1183M f21daff

Audio
ID : 2
Format : AAC
Format/Info : Advanced Audio Codec
Format version : Version 4
Format profile : LC
Format settings, SBR : Yes
Format settings, PS : No
Codec ID : A_AAC
Duration : 2h 12mn
Channel(s) : 2 channels
Channel positions : Front: L R
Sampling rate : 48.0 KHz
Compression mode : Lossy
Language : German
IMDB Link
Download Link Rapidshare
Part 1
Part 2
Part 3
Part 4
Part 5
Credit to original uploaders
Stalingrad (1993) English Subtitle
Stalingrad (1993) Indonesia Subtitle
Baca Selanjutnya..

Download Enemy at the Gates (2001) 400MB MKV Mediafire

During the WWII battle of Stalingrad, two snipers, a Russian, and a German, are locked in a battle of wills and marksmanship, while the Russian is boosted to the status of hero by a political official.







Format : Matroska
File size : 399 MiB
Duration : 2h 4mn
Overall bit rate : 449 Kbps
Encoded date : UTC 2008-06-22 03:46:07
Writing application : mkvmerge v2.2.0
Writing library : libebml v0.7.7 + libmatroska v0.8.1

Video
ID : 1
Format : AVC
Format/Info : Advanced Video Codec
Format profile : High@L4.0
Format settings, CABAC : Yes
Format settings, ReFrames : 5 frames
Codec ID : V_MPEG4/ISO/AVC
Duration : 2h 4mn
Nominal bit rate : 414 Kbps
Width : 608 pixels
Height : 256 pixels
Display aspect ratio : 2.35:1
Frame rate : 25.000 fps
Color space : YUV
Chroma subsampling : 4:2:0
Bit depth : 8 bits
Scan type : Progressive
Bits/(Pixel*Frame) : 0.106
Writing library : x264 core 59

Audio
ID : 2
Format : AAC
Format/Info : Advanced Audio Codec
Format version : Version 4
Format profile : LC
Format settings, SBR : Yes
Format settings, PS : Yes
Codec ID : A_AAC
Duration : 2h 4mn
Channel(s) : 2 channels
Channel positions : Front: L R
Sampling rate : 48.0 KHz
Compression mode : Lossy
Language : English
IMDB Link
Download Link Mediafire
Part 1
Part 2
Part 3
Part 4
pass lucky
Credit to original uploaders
Enemy at the Gates (2001) English Subtitle
Enemy at the Gates (2001) Indonesia Subtitle
Baca Selanjutnya..

Senin, Februari 14, 2011

Download Jackie Chan : Twin Dragons (1992) 400MB MKV Mediafire

On holidays in Hong Kong, Mrs Ma gives birth to identical twins. A criminal in the same hospital attempts to escape, taking one of the twins hostage. The child is lost during the confusion, and Mr and Mrs Ma return to New York with one child. Years later, John Ma is a famous conductor and pianist, unaware that his twin brother "Boomer" is a mechanic/race car driver/bodyguard in Hong Kong. When John travels to Hong Kong to give a concert, the twins get caught up in each other's business, about which they are anything but experts.

Format : Matroska
File size : 405 MiB
Duration : 1h 44mn
Overall bit rate : 543 Kbps
Encoded date : UTC 2009-03-08 15:20:20
Writing application : mkvmerge v2.4.2
Writing library : libebml v0.7.7 + libmatroska v0.8.1

Video
ID : 1
Format : AVC
Format/Info : Advanced Video Codec
Format profile : High@L5.1
Format settings, CABAC : Yes
Format settings, ReFrames : 13 frames
Codec ID : V_MPEG4/ISO/AVC
Duration : 1h 44mn
Bit rate : 468 Kbps
Nominal bit rate : 496 Kbps
Width : 640 pixels
Height : 272 pixels
Display aspect ratio : 2.35:1
Frame rate : 23.000 fps
Original frame rate : 23.976 fps
Color space : YUV
Chroma subsampling : 4:2:0
Bit depth : 8 bits
Scan type : Progressive
Bits/(Pixel*Frame) : 0.117
Stream size : 349 MiB (86%)
Writing library : x264 core 56 svn-680

Audio
ID : 2
Format : MPEG Audio
Format version : Version 2
Format profile : Layer 3
Mode : Joint stereo
Mode extension : Intensity Stereo + MS Stereo
Codec ID : A_MPEG/L3
Codec ID/Hint : MP3
Duration : 1h 44mn
Bit rate mode : Constant
Bit rate : 64.0 Kbps
Channel(s) : 2 channels
Sampling rate : 24.0 KHz
Compression mode : Lossy
Stream size : 47.7 MiB (12%)
Language : Vietnamese
IMDB Link
Download Link Mediafire
Part 1
Part 2
Part 3
Part 4
Part 5
pass mflinks4u.co.cc
Credit to original uploaders
Twin Dragons (1992) English Subtitle
Baca Selanjutnya..

Download Jackie Chan : Heart of Dragon (1985) 300MB MKV Mediafire

Story of a cop who forsakes his dreams of sailing around the world so that he can care for his mentally retarded brother. Innocently caught up in a gangland fight, the brother is kidnapped to force the cop to turn over a police informant.






Format : Matroska
File size : 335 MiB
Duration : 1h 30mn
Overall bit rate : 517 Kbps
Encoded date : UTC 2009-03-12 02:37:19
Writing application : mkvmerge v2.4.2
Writing library : libebml v0.7.7 + libmatroska v0.8.1

Video
ID : 1
Format : AVC
Format/Info : Advanced Video Codec
Format profile : High@L3.0
Format settings, CABAC : Yes
Format settings, ReFrames : 5 frames
Codec ID : V_MPEG4/ISO/AVC
Duration : 1h 30mn
Bit rate : 450 Kbps
Width : 656 pixels
Height : 368 pixels
Display aspect ratio : 16:9
Frame rate : 23.976 fps
Color space : YUV
Chroma subsampling : 4:2:0
Bit depth : 8 bits
Scan type : Progressive
Bits/(Pixel*Frame) : 0.078
Stream size : 287 MiB (86%)
Writing library : x264 core 65 r998M 6768543

Audio
ID : 3
Format : MPEG Audio
Format version : Version 1
Format profile : Layer 3
Mode : Joint stereo
Mode extension : MS Stereo
Codec ID : A_MPEG/L3
Codec ID/Hint : MP3
Duration : 1h 30mn
Bit rate mode : Constant
Bit rate : 64.0 Kbps
Channel(s) : 2 channels
Sampling rate : 44.1 KHz
Compression mode : Lossy
Stream size : 41.5 MiB (12%)
Language : Vietnamese
IMDB Link
Download Link Mediafire
Part 1
Part 2
Part 3
Part 4
pass mflinks4u.co.cc
Credit to original uploaders
Heart of Dragon (1985) English Subtitle
Baca Selanjutnya..

Minggu, Februari 13, 2011

Download Night at the Museum: Battle of the Smithsonian (2009) 400MB MKV Indowebster

Security guard Larry Daley infiltrates the Smithsonian Institution in order to rescue Jedediah and Octavius, who have been shipped to the museum by mistake.









Format : Matroska
File size : 398 MiB
Duration : 1h 44mn
Overall bit rate : 531 Kbps
Encoded date : UTC 2009-08-16 19:11:14
Writing application : mkvmerge v2.9.7
Writing library : libebml v0.7.7 + libmatroska v0.8.1

Video
ID : 1
Format : AVC
Format/Info : Advanced Video Codec
Format profile : High@L3.0
Format settings, CABAC : Yes
Format settings, ReFrames : 3 frames
Format settings, GOP : N=1
Codec ID : V_MPEG4/ISO/AVC
Duration : 1h 44mn
Nominal bit rate : 494 Kbps
Width : 720 pixels
Height : 304 pixels
Display aspect ratio : 2.35:1
Original display aspect ratio : 2.35:1
Frame rate : 23.976 fps
Color space : YUV
Chroma subsampling : 4:2:0
Bit depth : 8 bits
Scan type : Progressive
Bits/(Pixel*Frame) : 0.094
Writing library : x264 core 71 r1210 42d6b17

Audio
ID : 2
Format : AAC
Format/Info : Advanced Audio Codec
Format version : Version 4
Format profile : LC
Format settings, SBR : Yes
Format settings, PS : No
Codec ID : A_AAC
Duration : 1h 44mn
Channel(s) : 2 channels
Channel positions : Front: L R
Sampling rate : 48.0 KHz
Compression mode : Lossy
Language : English
IMDB Link
Download Link Indowebster
Part 1
Credit to original uploaders
Night at the Museum: Battle of the Smithsonian (2009) English Subtitle
Baca Selanjutnya..

Download Night At The Museum (2006) 400MB MKV Mediafire

In New York, unemployed and divorced Larry Daley is a complete loser. His son Nick is very disappointed with his father who is going to be evicted. Larry accepts the job of night watchman in the Museum of Natural History and takes the place of three old security guards that have just retired in order to raise some money and pay his bills. On his first shift, Larry soon realizes that everything at the museum is not as it seems as the statues begin to come to life after the sun sets. The Museum transforms into complete chaos with the inexperienced Larry in charge as he learns that an old Egyptian stone that came to the Museum in 1950 brings these statues to life until dawn. When Larry brings his son to spend a night with him, the three old guards break into the Museum to try to steal the magical stone. Larry organizes all the historic characters to help him stop the criminals and save the museum.

Format : Matroska
File size : 398 MiB
Duration : 1h 45mn
Overall bit rate : 528 Kbps
Encoded date : UTC 2008-09-24 01:34:49
Writing application : mkvmerge v2.3.0
Writing library : libebml v0.7.7 + libmatroska v0.8.1

Video
ID : 1
Format : AVC
Format/Info : Advanced Video Codec
Format profile : High@L3.0
Format settings, CABAC : Yes
Format settings, ReFrames : 8 frames
Format settings, GOP : N=1
Codec ID : V_MPEG4/ISO/AVC
Duration : 1h 45mn
Nominal bit rate : 478 Kbps
Width : 640 pixels
Height : 352 pixels
Display aspect ratio : 16:9
Frame rate : 23.976 fps
Color space : YUV
Chroma subsampling : 4:2:0
Bit depth : 8 bits
Scan type : Progressive
Bits/(Pixel*Frame) : 0.088
Writing library : x264 core 64 r979M 6d4af8d

Audio
ID : 2
Format : AAC
Format/Info : Advanced Audio Codec
Format version : Version 4
Format profile : LC
Format settings, SBR : Yes
Format settings, PS : No
Codec ID : A_AAC
Duration : 1h 45mn
Channel(s) : 2 channels
Channel positions : Front: L R
Sampling rate : 48.0 KHz
Compression mode : Lossy
Language : English
IMDB Link
Download Link Mediafire
Part 1
Part 2
Part 3
Part 4
pass lucky
Credit to original uploaders
Night At The Museum (2006) English Subtitle
Night At The Museum (2006) Indonesia Subtitle
Baca Selanjutnya..

Sabtu, Februari 12, 2011

Download Jackie Chan : City Hunter (1993) 300MB MKV Mediafire

While searching for the daughter of a Japanese publishing magnate, private investigator Ryu Saeba and his assistant Kaori are caught up in the middle of a cruise liner highjacking. It's up to Ryu to save the day...but can he do it on an empty stomach?






Format : Matroska
File size : 364 MiB
Duration : 1h 35mn
Overall bit rate : 535 Kbps
Encoded date : UTC 2009-03-10 07:00:11
Writing application : mkvmerge v2.4.2
Writing library : libebml v0.7.7 + libmatroska v0.8.1

Video
ID : 1
Format : AVC
Format/Info : Advanced Video Codec
Format profile : High@L3.0
Format settings, CABAC : Yes
Format settings, ReFrames : 5 frames
Codec ID : V_MPEG4/ISO/AVC
Duration : 1h 35mn
Bit rate : 450 Kbps
Width : 640 pixels
Height : 352 pixels
Display aspect ratio : 16:9
Frame rate : 25.000 fps
Original frame rate : 23.976 fps
Color space : YUV
Chroma subsampling : 4:2:0
Bit depth : 8 bits
Scan type : Progressive
Bits/(Pixel*Frame) : 0.080
Stream size : 313 MiB (86%)
Writing library : x264 core 65 r998M 6768543

Audio
ID : 2
Format : MPEG Audio
Format version : Version 2
Format profile : Layer 3
Mode : Joint stereo
Mode extension : Intensity Stereo + MS Stereo
Codec ID : A_MPEG/L3
Codec ID/Hint : MP3
Duration : 1h 35mn
Bit rate mode : Constant
Bit rate : 64.0 Kbps
Channel(s) : 2 channels
Sampling rate : 22.05 KHz
Compression mode : Lossy
Stream size : 43.6 MiB (12%)
Language : Cantonese
IMDB Link
Download Link Mediafire
Part 1
Part 2
Part 3
Part 4
Part 5
pass mflinks4u.co.cc
Credit to original uploaders
City Hunter (1993) English Subtitle
Baca Selanjutnya..

Download Jackie Chan : The Legend of Drunken Master (1994) 300MB MKV Mediafire

Returning home with his father after a shopping expedition, Wong Fei-Hong is unwittingly caught up in the battle between foreigners who wish to export ancient Chinese artifacts and loyalists who don't want the pieces to leave the country. Fei-Hong has learned a style of fighting called "Drunken Boxing", which makes him a dangerous person to cross. Unfortunately, his father is opposed to his engaging in any kind of fighting, let alone drunken boxing. Consequently, Fei-Hong not only has to fight against the foreigners, but he must overcome his father's antagonism as well.

Format : Matroska
File size : 372 MiB
Duration : 1h 41mn
Overall bit rate : 515 Kbps
Encoded date : UTC 2010-12-14 01:36:45
Writing application : mkvmerge v4.4.0
Writing library : libebml v1.0.0 + libmatroska v1.0.0

Video
ID : 2
Format : AVC
Format/Info : Advanced Video Codec
Format profile : High@L2.1
Format settings, CABAC : Yes
Format settings, ReFrames : 5 frames
Muxing mode : Header stripping
Codec ID : V_MPEG4/ISO/AVC
Duration : 1h 41mn
Bit rate : 440 Kbps
Width : 608 pixels
Height : 256 pixels
Display aspect ratio : 2.35:1
Frame rate : 23.976 fps
Color space : YUV
Chroma subsampling : 4:2:0
Bit depth : 8 bits
Scan type : Progressive
Bits/(Pixel*Frame) : 0.118
Stream size : 318 MiB (86%)

Audio
ID : 1
Format : MPEG Audio
Format version : Version 2
Format profile : Layer 3
Mode : Joint stereo
Mode extension : Intensity Stereo + MS Stereo
Muxing mode : Header stripping
Codec ID : A_MPEG/L3
Codec ID/Hint : MP3
Duration : 1h 41mn
Bit rate mode : Constant
Bit rate : 64.0 Kbps
Channel(s) : 2 channels
Sampling rate : 22.05 KHz
Compression mode : Lossy
Stream size : 46.2 MiB (12%)
Language : Cantonese (Vietnamese Narrator)
IMDB Link
Download Link Mediafire
Part 1
Part 2
Part 3
Part 4
pass mflinks4u.co.cc
Credit to original uploaders
The Legend of Drunken Master (1994) English Subtitle
Baca Selanjutnya..

Jumat, Februari 11, 2011

Download Flags of Our Fathers (2006) 400MB MKV Mediafire

In 1945, the Marines attack twelve thousand Japaneses protecting the twenty square kilometers of the sacred Iwo Jima island in a very violent battle. When they reach the Mount Suribachi and six soldiers raise their flag on the top, the picture become a symbol in a post Great Depression America. The government brings the three survivors to America to raise funds of war, bringing hope to desolated people, and making the three men heroes of war. However, the traumatized trio has difficulties to deal with the image build by their superiors, sharing the heroism with their mates.

Format : Matroska
File size : 399 MiB
Duration : 1h 59mn
Overall bit rate : 468 Kbps
Encoded date : UTC 2008-11-07 13:51:42
Writing application : mkvmerge v2.3.0
Writing library : libebml v0.7.7 + libmatroska v0.8.1

Video
ID : 1
Format : AVC
Format/Info : Advanced Video Codec
Format profile : High@L2.2
Format settings, CABAC : Yes
Format settings, ReFrames : 8 frames
Codec ID : V_MPEG4/ISO/AVC
Duration : 1h 59mn
Nominal bit rate : 444 Kbps
Width : 660 pixels
Height : 272 pixels
Display aspect ratio : 2.40:1
Frame rate : 25.000 fps
Color space : YUV
Chroma subsampling : 4:2:0
Bit depth : 8 bits
Scan type : Progressive
Bits/(Pixel*Frame) : 0.099
Writing library : x264 core 65 r1016M dbc5ef0

Audio
ID : 2
Format : AAC
Format/Info : Advanced Audio Codec
Format version : Version 4
Format profile : LC
Format settings, SBR : Yes
Format settings, PS : No
Codec ID : A_AAC
Duration : 1h 59mn
Channel(s) : 2 channels
Channel positions : Front: L R
Sampling rate : 48.0 KHz
Compression mode : Lossy
Language : English
IMDB Link
Download Link Mediafire
Part 1
Part 2
Part 3
Part 4
pass lucky
Credit to original uploaders
Flags of Our Fathers (2006) English Subtitle
Baca Selanjutnya..

Download Letters from Iwo Jima (2006) 700MB AVI Indowebster

The island of Iwo Jima stands between the American military force and the home islands of Japan. Therefore the Imperial Japanese Army is desperate to prevent it from falling into American hands and providing a launching point for an invasion of Japan. General Tadamichi Kuribayashi is given command of the forces on the island and sets out to prepare for the imminent attack. General Kuribayashi, however, does not favor the rigid traditional approach recommended by his subordinates, and resentment and resistance fester among his staff. In the lower echelons, a young soldier, Saigo, a poor baker in civilian life, strives with his friends to survive the harsh regime of the Japanese army itself, all the while knowing that a fierce battle looms. When the American invasion begins, both Kuribayashi and Saigo find strength, honor, courage, and horrors beyond imagination.

Format : AVI
Format/Info : Audio Video Interleave
File size : 694 MiB
Duration : 2h 20mn
Overall bit rate : 690 Kbps
Writing application : VirtualDubMod 1.5.10.2 (build 2542/release)
Writing library : VirtualDubMod build 2542/release

Video
ID : 0
Format : MPEG-4 Visual
Format profile : Advanced Simple@L5
Format settings, BVOP : Yes
Format settings, QPel : No
Format settings, GMC : No warppoints
Format settings, Matrix : Default (H.263)
Muxing mode : Packed bitstream
Codec ID : XVID
Codec ID/Hint : XviD
Duration : 2h 20mn
Bit rate : 553 Kbps
Width : 640 pixels
Height : 272 pixels
Display aspect ratio : 2.35:1
Frame rate : 23.976 fps
Color space : YUV
Chroma subsampling : 4:2:0
Bit depth : 8 bits
Scan type : Progressive
Compression mode : Lossy
Bits/(Pixel*Frame) : 0.132
Stream size : 556 MiB (80%)
Writing library : XviD 1.1.2 (UTC 2006-11-01)

Audio
ID : 1
Format : MPEG Audio
Format version : Version 1
Format profile : Layer 3
Mode : Joint stereo
Mode extension : MS Stereo
Codec ID : 55
Codec ID/Hint : MP3
Duration : 2h 20mn
Bit rate mode : Constant
Bit rate : 128 Kbps
Channel(s) : 2 channels
Sampling rate : 48.0 KHz
Compression mode : Lossy
Stream size : 129 MiB (19%)
Alignment : Aligned on interleaves
Interleave, duration : 42 ms (1.00 video frame)
Interleave, preload duration : 504 ms
Writing library : LAME3.96.1
Language : Japanese (English Hardsub)
IMDB Link
Download Link Indowebster
Part 1
Credit to original uploaders
Letters from Iwo Jima (2006) English Subtitle
Letters from Iwo Jima (2006) Indonesia Subtitle
Baca Selanjutnya..

Kamis, Februari 10, 2011

Download The Mask (1994) 400MB MKV Mediafire

Stanley Ipkiss is a bank clerk that is an incredibly nice man. Unfortunately, he is too nice for his own good and is a pushover when it comes to confrontations. After one of the worst days of his life, he finds a mask that depicts Loki, the Norse night god of mischief. Now, when he puts it on, he becomes his inner, self: a cartoony romantic wild man. However, a small time crime boss, Dorian Tyrel, comes across this character dubbed "The Mask" by the media. After Ipkiss's alter ego indirectly kills his friend in crime, Tyrel now wants this green-faced goon destroyed.


Format : Matroska
File size : 397 MiB
Duration : 1h 36mn
Overall bit rate : 573 Kbps
Writing application : HandBrake 0.9.4

Video
ID : 1
Format : AVC
Format/Info : Advanced Video Codec
Format profile : Main@L3.0
Format settings, CABAC : Yes
Format settings, ReFrames : 2 frames
Codec ID : V_MPEG4/ISO/AVC
Duration : 1h 36mn
Nominal bit rate : 412 Kbps
Width : 704 pixels
Height : 398 pixels
Display aspect ratio : 16:9
Frame rate : 25.000 fps
Color space : YUV
Chroma subsampling : 4:2:0
Bit depth : 8 bits
Scan type : Progressive
Bits/(Pixel*Frame) : 0.059
Writing library : x264 core 79

Audio
ID : 2
Format : AAC
Format/Info : Advanced Audio Codec
Format version : Version 4
Format profile : LC
Codec ID : A_AAC
Duration : 1h 36mn
Channel(s) : 2 channels
Channel positions : Front: L R
Sampling rate : 48.0 KHz
Compression mode : Lossy
Language : English
IMDB Link
Download Link Mediafire
Part 1
Part 2
Part 3
Part 4
pass moviesnhacks
Credit to original uploaders
The Mask (1994) English Subtitle
The Mask (1994) Indonesia Subtitle
Baca Selanjutnya..
 
' type='text/javascript'/>